请选择 进入手机版 | 继续访问电脑版

5n电影网

 找回密码
 立即注册

弗兰克 Frank.2014.1080p.BluRay.x264-SONiDO 6.55GB

[复制链接]
bt下载 发表于 2019-6-13 04:09:10 | 显示全部楼层 |阅读模式


帖子完整标题:弗兰克 Frank.2014.1080p.BluRay.x264-SONiDO 6.55GB




◎译  名 弗兰克
◎片  名 Frank
◎年  代 2014
◎产  地 英国 / 爱尔兰 / 美国
◎类  别 剧情 / 喜剧 / 音乐
◎语  言 英语 / 法语 / 德语
◎上映日期 2014-01-17(圣丹斯电影节) / 2014-05-09(英国/爱尔兰)
◎片  长 95分钟
◎导  演 兰纳德·阿伯拉罕森 Leonard Abrahamson
◎编  剧 乔恩·容森 Jon Ronson / 彼特·斯特劳恩 Peter Straughan
◎主  演 多姆纳尔·格里森 Domhnall Gleeson
      迈克尔·法斯宾德 Michael Fassbender
      玛吉·吉伦哈尔 Maggie Gyllenhaal
      斯科特·麦克纳里 Scoot McNairy
      弗朗索瓦·西维尔 Fran?ois Civil
      卡拉·阿扎 Carla Azar
      肖恩·欧布莱恩 Shane O'Brien
      莫伊拉·布鲁克 Moira Brooker
      保罗·巴特沃斯 Paul Butterworth
      菲尔·金斯顿 Phil Kingston
      比利·特雷纳 Billie Traynor
      克里斯·麦克哈利姆 Chris McHallem
      马克·休伯曼 Mark Huberman
      凯蒂·安妮·米切尔 Katie Anne Mitchell
      马修·佩奇 Matthew Page
      亚历克斯·奈特 Alex Knight
      泰丝·哈珀 Tess Harper
      布鲁斯·麦金托什 Bruce McIntosh


◎标  签 英国 | 音乐 | 黑色幽默 | 文艺 | 2014 | 剧情 | 爱尔兰 | 喜剧

◎简  介  

  乔恩(多姆纳尔·格利森 Domhnall Gleeson 饰)是一个热爱音乐的年轻人,某天误打误撞加入了一支有点神经质的地下乐队,乐队的主唱兼灵魂人物是弗兰克(迈克尔·法斯宾德 Michael Fassbender 饰)——既是才华横溢的天才、又是终日戴着一个硕大头套的 怪人。乔恩跟着乐队到爱尔兰某个偏僻的小木屋里录制专辑,他们在此过上几近与世隔绝的生活。这一年来,乔恩一直私自将他们的生活以视频的形式发布在社交网络上。终于,乐队的奇特经历引起了某个音乐节主办方的关注,乔恩说服成员们远赴美国参加这个叫西南偏南(SXSW)的音乐节,藉此成名。
本片根据乔恩·强森的回忆录改编。片中的乐队领袖弗兰克以Chris Sievey为原型。Chris Sievey在七八十年代红极一时,他同时是个风趣演员,以喜剧形象“Frank Sidebottom”驰誉。在弗兰克身上还能看到Daniel Johnston、Captain Beefheart等特立独行的音乐人的影子。

◎获奖情况  

  第17届英国独立电影奖(2014)
  最佳导演(提名) 伦尼·阿伯拉罕森
  最佳编剧 乔恩·容森 / 彼特·斯特劳恩
  最佳女配角(提名) 玛吉·吉伦哈尔
  最佳男配角(提名) 迈克尔·法斯宾德
  技术成就奖 Stephen Rennicks

  第1届豆瓣电影年度榜单(2014)
  评分最高的欧洲电影(提名)


Video
ID                                       : 1
Format                                   : AVC
Format/Info                              : Advanced Video Codec

Format settings, CABAC                   : Yes
Format settings, ReFrames                : 5 frames
Codec ID                                 : V_MPEG4/ISO/AVC
Duration                                 : 1 h 35 min
Bit rate                                 : 9 100 kb/s
Width                                    : 1 920 pixels
Height                                   : 816 pixels
Display aspect ratio                     : 2.35:1
Frame rate mode                          : Constant
Frame rate                               : 23.976 (24000/1001) FPS
Original frame rate                      : 23.976 (23976/1000) FPS
Color space                              : YUV
Chroma subsampling                       : 4:2:0
Bit depth                                : 8 bits
Scan type                                : Progressive
Bits/(Pixel*Frame)                       : 0.242
Stream size                              : 6.04 GiB (92%)
Writing library                          : x264 core 142 r2453 ea0ca51
Encoding settings                        : cabac=1 / ref=5 / deblock=1:0:0 / analyse=0x3:0x133 / me=umh / subme=8 / psy=1 / psy_rd=1.00:0.00 / mixed_ref=1 / me_range=16 / chroma_me=1 / trellis=1 / 8x8dct=1 / cqm=0 / deadzone=21,11 / fast_pskip=0 / chroma_qp_offset=-2 / threads=12 / lookahead_threads=2 / sliced_threads=0 / nr=0 / decimate=1 / interlaced=0 / bluray_compat=0 / constrained_intra=0 / bframes=3 / b_pyramid=2 / b_adapt=2 / b_bias=0 / direct=3 / weightb=1 / open_gop=0 / weightp=2 / keyint=250 / keyint_min=23 / scenecut=40 / intra_refresh=0 / rc_lookahead=50 / rc=2pass / mbtree=1 / bitrate=9100 / ratetol=1.0 / qcomp=0.60 / qpmin=0 / qpmax=69 / qpstep=4 / cplxblur=20.0 / qblur=0.5 / ip_ratio=1.40 / aq=1:1.00
Language                                 : English
Default                                  : Yes
Forced                                   : No

Audio
ID                                       : 2
Format                                   : DTS
Format/Info                              : Digital Theater Systems
Mode                                     : 16
Format settings, Endianness              : Big
Codec ID                                 : A_DTS
Duration                                 : 1 h 35 min
Bit rate mode                            : Constant
Bit rate                                 : 768 kb/s
Channel(s)                               : 6 channels
Channel positions                        : Front: L C R, Side: L R, LFE
Sampling rate                            : 48.0 kHz
Frame rate                               : 93.750 FPS (512 spf)
Bit depth                                : 24 bits
Compression mode                         : Lossy
Stream size                              : 522 MiB (8%)
Language                                 : English
Default                                  : Yes
Forced                                   : No

Text
ID                                       : 3
Format                                   : UTF-8
Codec ID                                 : S_TEXT/UTF8
Codec ID/Info                            : UTF-8 Plain Text
Duration                                 : 1 h 34 min
Bit rate                                 : 52 b/s
Count of elements                        : 1109
Stream size                              : 36.7 KiB (0%)
Language                                 : English
Default                                  : Yes
Forced                                   : No

Menu
00:00:00.000                             : en:00:00:00.000
00:06:58.084                             : en:00:06:58.084
00:14:56.270                             : en:00:14:56.270
00:21:14.899                             : en:00:21:14.899
00:29:07.496                             : en:00:29:07.496
00:37:24.576                             : en:00:37:24.576
00:45:31.604                             : en:00:45:31.604
00:51:54.069                             : en:00:51:54.069
01:01:32.188                             : en:01:01:32.188
01:07:58.283                             : en:01:07:58.283
01:14:36.138                             : en:01:14:36.138
01:23:28.837                             : en:01:23:28.837



                                                                                                                                                                                                        
                                                                                                                                                                                                                                                                                                                                                                                                                                                                                                                                                                                                                                                                                                                                                                                                                                                        
ec28c16ca1ec9a89b44bb5ac55920a75.torrent (66.08 KB)

回复

使用道具 举报

您需要登录后才可以回帖 登录 | 立即注册

本版积分规则

5n电影网  |网站地图

本网站所有资源来自网络,如无意中侵犯了您的权益,请发邮件至 [email protected],立即清除相关链接

GMT+8, 2019-8-25 23:54 , Processed in 0.125155 second(s), 31 queries .

Powered by Discuz! X3.2

© 2001-2013 Comsenz Inc.

快速回复 返回顶部 返回列表