请选择 进入手机版 | 继续访问电脑版

5n电影网

 找回密码
 立即注册

梅兰芳 Forever.Enthralled.2008.1080p.BluRay.x264-aBD 10.94GB

[复制链接]
高清bt 发表于 2019-6-13 13:18:38 | 显示全部楼层 |阅读模式
-->



帖子完整标题:梅兰芳 Forever.Enthralled.2008.1080p.BluRay.x264-aBD 10.94GB




◎译  名 Forever Enthralled
◎片  名 梅兰芳
◎年  代 2008
◎产  地 中国大陆
◎类  别 剧情 / 传记 / 历史
◎语  言 汉语普通话 / 北京话 / 日语
◎上映日期 2008-12-05(中国大陆)
◎IMDb评分  6.7/10 from 1324 users
◎  >◎豆瓣评分 6.9/10 from 97890 users
◎ 
◎片  长 147 分钟
◎导  演 陈凯歌 Kaige Chen
◎编  剧 严歌苓 Geling Yan / 陈国富 Kuo-fu Chen / 张家鲁 Jialu Zhang
◎主  演 黎明 Leon Lai
      章子怡 Ziyi Zhang
      孙红雷 Honglei Sun
      陈红 Hong Chen
      王学圻 Xueqi Wang
      余少群 Shaoqun Yu
      英达 Da Ying
      安藤政信 Masanobu Ando
      潘粤明 Yueming Pan
      吴刚 Gang Wu
      石小满 Xiaoman Shi
      六平直政 Naomasa Musaka
      钱波 Bo Qian
      毕彦君 Yanjun Bi
      张少华 Shaohua Zhang
      李明臣 Mingchen Li
      柳景溪 Jingxi Liu
      李滨 Bin Li
      陈强 Qiang Chen
      于小彤 Xiaotong Yu
      尹治 Zhi Yin
      李胜素 Shengsu Li


◎标  签 陈凯歌 | 梅兰芳 | 传记 | 中国电影 | 章子怡 | 黎明 | 中国 | 大陆

◎简  介  

  京剧艺术大师梅兰芳先生的传记电影,但多处描写与史实不符。
唱了大半辈子戏的大伯因在西太后寿辰中顾及家中出殡未穿红被赐一纸枷锁后,少年梅兰芳将他临死留下的一封书信随身携带,开始跟随与梅家有世交的京剧老生名角十三燕(王学圻)学唱戏、做人。十年后,梅兰芳(余少群)在梨园崭露头角,想着能一辈子清清白白唱戏、做人。
对戏剧艺术有颇深研究的留洋司法局长邱如白(孙红雷)满腹牢骚于传统京剧,却在看过梅兰芳的演出后难抑激动,提笔给他写下鼓励、建议书信。梅兰芳也想创新表演,对邱如白十分感激。两人封封书信往来、见面促膝长谈中,梅兰芳对京剧的理解日渐加深、翻新,并收获“三哥”邱如白持续一辈子的单纯情谊。
但梅兰芳也因此与十三燕生出分歧。两人在好事者的怂恿下决定对打擂台,梅兰芳大获全胜,迎来自己的时代。梅兰芳能成功,除了自个有非一般的悟性、邱如白时刻在艺术上将他鼓励外,尚因大银行家“六爷”冯子光(英达)在财力上慷慨相助。
之后,梅兰芳(黎明)迎娶福芝芳(陈红),开始试图过台上销魂女子、台下一般男子的生活,却注定如身戴“纸枷锁”般难如愿:结识当红须生孟小冬(章子怡)后,他与之结成精神上的伉俪,却抱憾擦身;抗日时期,为了表气节,他蓄须忍痛离别心爱的舞台。期间助他在国际舞台上大放光彩的赴美演出,亦是好事多磨。

◎获奖情况  

  第59届柏林国际电影节(2009)
  金熊奖 最佳影片(提名) 陈凯歌

  第46届台北金马影展(2009)
  金马奖 最佳男配角 王学圻
  金马奖 最佳女配角(提名) 章子怡
  金马奖 最佳新演员 余少群
  金马奖 最佳造型设计(提名) 陈同勋

  第28届香港电影金像奖(2009)
  最佳亚洲电影(提名)

  第27届中国电影金鸡奖(2009)
  最佳故事片
  最佳导演(提名) 陈凯歌
  最佳女主角(提名) 章子怡
  最佳男配角 王学圻
  最佳男配角(提名) 孙红雷
  最佳美术(提名) 柳青
  最佳音乐(提名) 赵季平
  最佳录音(提名) 王丹戎

  第13届中国电影华表奖(2009)
  优秀故事片奖
  优秀导演奖 陈凯歌
  优秀女演员奖 章子怡
  优秀新人男演员奖 余少群
  优秀电影技术奖

  第11届中国电影华表奖(2005)
  优秀夏衍剧本文学奖

  第3届亚洲电影大奖(2009)
  最佳电影(提名)
  最佳新演员 余少群
  最佳男配角(提名) 王学圻

  第9届华语电影传媒大奖(2009)
  最佳男配角 王学圻
  最佳新演员(提名) 余少群

  第16届北京大学生电影节(2009)
  最佳影片奖
  最佳导演奖(提名) 陈凯歌
  最佳男演员奖(提名) 王学圻
  最佳新人奖 余少群


Video
ID                                       : 1
Format                                   : AVC
Format/Info                              : Advanced Video Codec
Format profile                           : [email protected]
Format settings                          : CABAC / 5 Ref Frames
Format settings, CABAC                   : Yes
Format settings, ReFrames                : 5 frames
Codec ID                                 : V_MPEG4/ISO/AVC
Duration                                 : 2 h 26 min
Bit rate                                 : 9 155 kb/s
Width                                    : 1 920 pixels
Height                                   : 824 pixels
Display aspect ratio                     : 2.35:1
Frame rate mode                          : Constant
Frame rate                               : 23.976 (24000/1001) FPS
Color space                              : YUV
Chroma subsampling                       : 4:2:0
Bit depth                                : 8 bits
Scan type                                : Progressive
Bits/(Pixel*Frame)                       : 0.241
Stream size                              : 9.17 GiB (84%)
Writing library                          : x264 core 77 r1294 813fe72
Encoding settings                        : cabac=1 / ref=5 / deblock=1:-1:-1 / analyse=0x3:0x113 / me=umh / subme=7 / psy=1 / psy_rd=1.0:0.0 / mixed_ref=1 / me_range=16 / chroma_me=1 / trellis=2 / 8x8dct=1 / cqm=0 / deadzone=21,11 / chroma_qp_offset=-2 / threads=6 / nr=0 / decimate=1 / mbaff=0 / constrained_intra=0 / bframes=3 / b_pyramid=0 / b_adapt=2 / b_bias=0 / direct=3 / wpredb=1 / keyint=250 / keyint_min=25 / scenecut=40 / rc_lookahead=40 / rc=2pass / mbtree=1 / bitrate=9155 / ratetol=1.0 / qcomp=0.60 / qpmin=10 / qpmax=51 / qpstep=4 / cplxblur=20.0 / qblur=0.5 / vbv_maxrate=50000 / vbv_bufsize=50000 / ip_ratio=1.40 / aq=1:1.00
Language                                 : Chinese
Default                                  : Yes
Forced                                   : No

Audio
ID                                       : 2
Format                                   : DTS
Format/Info                              : Digital Theater Systems
Codec ID                                 : A_DTS
Duration                                 : 2 h 26 min
Bit rate mode                            : Constant
Bit rate                                 : 1 509 kb/s
Channel(s)                               : 6 channels
Channel layout                           : C L R Ls Rs LFE
Sampling rate                            : 48.0 kHz
Frame rate                               : 93.750 FPS (512 SPF)
Bit depth                                : 16 bits
Compression mode                         : Lossy
Stream size                              : 1.55 GiB (14%)
Language                                 : Chinese
Default                                  : Yes
Forced                                   : No

Text
ID                                       : 3
Format                                   : UTF-8
Codec ID                                 : S_TEXT/UTF8
Codec ID/Info                            : UTF-8 Plain Text
Language                                 : English
Default                                  : Yes
Forced                                   : No



                                                                                                                                                                                                        
                                                                                                                                                                                                                                                                                                                                                                                                                                                                                                                                                                                                                                                                                                                                                                                                                                                        
34309ad54e7de9991a2bb68fde8feb3a.torrent (55.17 KB)

回复

使用道具 举报

您需要登录后才可以回帖 登录 | 立即注册

本版积分规则

5n电影网  |网站地图

本网站所有资源来自网络,如无意中侵犯了您的权益,请发邮件至 [email protected],立即清除相关链接

GMT+8, 2019-6-26 01:24 , Processed in 0.071527 second(s), 31 queries .

Powered by Discuz! X3.2

© 2001-2013 Comsenz Inc.

快速回复 返回顶部 返回列表