请选择 进入手机版 | 继续访问电脑版

5n电影网

 找回密码
 立即注册

第29轨 Track.29.1988.1080p.BluRay.x264-SPOOKS 6.57GB

[复制链接]
电影下载 发表于 2019-6-13 13:18:38 | 显示全部楼层 |阅读模式


帖子完整标题:第29轨 Track.29.1988.1080p.BluRay.x264-SPOOKS 6.57GB




◎译  名 第29轨
◎片  名 Track 29
◎年  代 1988
◎产  地 英国 / 美国
◎类  别 剧情 / 悬疑
◎语  言 英语
◎上映日期 1988-08-05
◎片  长 Germany: 86 分钟
◎导  演 Nicolas Roeg
◎编  剧 丹尼斯·波特 Dennis Potter
◎主  演 加里·奥德曼 Gary Oldman
      泰莉莎·拉塞尔 Theresa Russell
      克里斯托弗·洛伊德 Christopher Lloyd


◎标  签 GaryOldman | 英国 | 悬疑 | 英国电影 | 1988 | Gary_Oldman | 1980s | NicolasRoeg

◎简  介  

  A doctor's wife tires of his obsession with model trains, and spends her days wondering about the son she gave up for adoption at birth. While eating at a roadside cafe, she encounters a British hitchhiker, who turns out to be her son. They spend time together trying to find a bond. The son begins to hate the husband, and the wife begins worrying about the safety of her husband and his train set. Written by Ed Sutton {1}
For this psychological drama, Dennis Potter reworked his 1974 TV play, Schmoedipus, transposing the setting from London to the United States. The title "Track 29" is taken from the lyrics of "Chattanooga Choo Choo." Distraught and dreamy Linda Henry (Theresa Russell) complains to her husband, surgeon Henry Henry (Christopher Lloyd), about their sex-less, childless marriage, but he's obsessed with his basement model railroad layout and also engaged in an affair with a nurse (Sandra Bernhard). When mysterious stranger Martin (Gary Oldman) drops in on Linda, he claims to be her long-lost illegitimate son. As seen in flashbacks, the 16-year-old Linda was raped at a carnival by a man (Gary Oldman) who resembles Martin. Subsequent events hint at Martin as a delusion, a product erupting from Linda's fantasy world. Written by Bhob Stewart {1}
Video
ID                                       : 1
Format                                   : AVC
Format/Info                              : Advanced Video Codec

Format settings                          : CABAC / 4 Ref Frames
Format settings, CABAC                   : Yes
Format settings, ReFrames                : 4 frames
Codec ID                                 : V_MPEG4/ISO/AVC
Duration                                 : 1 h 30 min
Bit rate                                 : 9 763 kb/s
Width                                    : 1 920 pixels
Height                                   : 1 040 pixels
Display aspect ratio                     : 1.85:1
Frame rate mode                          : Constant
Frame rate                               : 23.976 (24000/1001) FPS
Color space                              : YUV
Chroma subsampling                       : 4:2:0
Bit depth                                : 8 bits
Scan type                                : Progressive
Bits/(Pixel*Frame)                       : 0.204
Stream size                              : 6.15 GiB (94%)
Writing library                          : x264 core 157 r2969 d4099dd
Encoding settings                        : cabac=1 / ref=4 / deblock=1:-3:-3 / analyse=0x3:0x133 / me=umh / subme=9 / psy=1 / psy_rd=1.00:0.00 / mixed_ref=1 / me_range=24 / chroma_me=1 / trellis=1 / 8x8dct=1 / cqm=0 / deadzone=21,11 / fast_pskip=0 / chroma_qp_offset=-2 / threads=24 / lookahead_threads=4 / sliced_threads=0 / nr=0 / decimate=1 / interlaced=0 / bluray_compat=0 / constrained_intra=0 / bframes=8 / b_pyramid=2 / b_adapt=2 / b_bias=0 / direct=3 / weightb=1 / open_gop=0 / weightp=2 / keyint=250 / keyint_min=23 / scenecut=40 / intra_refresh=0 / rc_lookahead=60 / rc=2pass / mbtree=1 / bitrate=9763 / ratetol=1.0 / qcomp=0.60 / qpmin=0 / qpmax=69 / qpstep=4 / cplxblur=20.0 / qblur=0.5 / vbv_maxrate=62500 / vbv_bufsize=78125 / nal_hrd=none / filler=0 / ip_ratio=1.40 / aq=1:1.00
Default                                  : Yes
Forced                                   : No

Audio
ID                                       : 2
Format                                   : AC-3
Format/Info                              : Audio Coding 3
Commercial name                          : Dolby Digital
Codec ID                                 : A_AC3
Duration                                 : 1 h 30 min
Bit rate mode                            : Constant
Bit rate                                 : 640 kb/s
Channel(s)                               : 2 channels
Channel layout                           : L R
Sampling rate                            : 48.0 kHz
Frame rate                               : 31.250 FPS (1536 SPF)
Bit depth                                : 16 bits
Compression mode                         : Lossy
Stream size                              : 413 MiB (6%)
Language                                 : English
Service kind                             : Complete Main
Default                                  : Yes
Forced                                   : No

Menu
00:00:00.000                             : en:Chapter 01
00:07:30.492                             : en:Chapter 02
00:19:22.536                             : en:Chapter 03
00:27:04.164                             : en:Chapter 04
00:37:48.850                             : en:Chapter 05
00:46:51.559                             : en:Chapter 06
00:54:09.997                             : en:Chapter 07
01:02:29.829                             : en:Chapter 08
01:12:11.327                             : en:Chapter 09
01:23:12.988                             : en:Chapter 10



                                                                                                                                                                                                        
                                                                                                                                                                                                                                                                                                                                                                                                                                                                                                                                                                                                                                                                                                                                                                                                                                                        
69792125940433bba99b2b474048b8fd.torrent (33.59 KB)

回复

使用道具 举报

您需要登录后才可以回帖 登录 | 立即注册

本版积分规则

5n电影网  |网站地图

本网站所有资源来自网络,如无意中侵犯了您的权益,请发邮件至 [email protected],立即清除相关链接

GMT+8, 2019-6-26 00:35 , Processed in 0.088451 second(s), 31 queries .

Powered by Discuz! X3.2

© 2001-2013 Comsenz Inc.

快速回复 返回顶部 返回列表