请选择 进入手机版 | 继续访问电脑版

5n电影网

 找回密码
 立即注册

[BD-4K] 余波/情敌 The.Aftermath.2019.INTERNAL.2160p.WEB.H265-DEFLATE 19.36GB

[复制链接]
高清bt 发表于 3 天前 | 显示全部楼层 |阅读模式


帖子完整标题:余波/情敌 The.Aftermath.2019.INTERNAL.2160p.WEB.H265-DEFLATE 19.36GB




◎译  名 余波 / 情,敌(台) / 敌人妻(港)
◎片  名 The Aftermath
◎年  代 2019
◎产  地 英国 / 美国 / 德国
◎类  别 剧情 / 爱情 / 战争
◎语  言 英语
◎上映日期 2019-03-01(英国) / 2019-03-15(美国)
◎片  长 108分钟
◎导  演 詹姆斯·肯特 James Kent
◎编  剧 乔·施雷普内尔 Joe Shrapnel / 安娜·沃特豪斯 Anna Waterhouse / 瑞迪安·布鲁克 Rhidian Brook
◎主  演 亚历山大·斯卡斯加德 Alexander Skarsg?rd
      凯拉·奈特莉 Keira Knightley
      杰森·克拉克 Jason Clarke
      凯特·菲利普斯 Kate Phillips
      费昂·奥谢 Fionn O'Shea
      雅尼克·许曼 Jannik Schümann
      亚历山大·吉尔 Alexander Scheer
      吉姆·海伊 Jim High
      弗雷德里克·普雷斯顿 Frederick Preston
      汤姆·贝尔 Tom Bell
      Abigail Rice
      Logan Hillier
      Flora Thiemann
      Joseph Arkley
      Claudia Vasekova


◎标  签 KeiraKnightley | 英国 | 爱情 | 战争 | AlexanderSkarsg?rd | 2019 | 剧情 | 英国电影

◎简  介  

  凯拉·奈特莉(Keira Knightley)与亚历山大·斯卡斯加德(Alexander Skarsgard)日前准备加盟一部名为《余波》(The Aftermath)的新片,该片由福克斯探照灯公司制作,是一部讲述二战战后故事的文艺片。
《余波》根据Rhidian Brook同名小说改编,故事设定在1946年二战刚结束的德国汉堡。英军上校刘易斯奉命驻扎在这座城市,负责重建工作,他的妻子瑞切尔以及11岁的小儿子艾德蒙和他一起搬到了汉堡。
不过让瑞切尔愤怒的是,他们和一家德国人住在同一幢大房子里。瑞切尔和刘易斯的长子在德军轰炸中丧生,为此她极其的痛恨德国人。这家德国人是一位父亲和他16岁的女儿,他们在战争中失去了妻子(母亲),对英国人也没有好脸色。不过刘易斯坚持这样安排,大家只好别别扭扭的住在同一个屋檐下。
二战后的德国非常混乱,占领军与德国人的矛盾一直存在,还有些德国人企图重新集结为纳粹招魂。然而,瑞切尔关心的却是她自己家的问题,丈夫整日忙于工作,无暇顾及自己孩子,她唯一可以交流的人就是那个德国鳏夫(其实她并不知道,丈夫之所以如此忘我工作,也是为了忘却丧子之痛),慢慢的,这两个一开始互相敌视的人相爱了……
《余波》将由詹姆斯·肯特(James Kent)导演,雷德利·斯考特(Ridley Scott)将通过他的Scott-Free制片公司制作本片。
Video
ID                                       : 1
Format                                   : HEVC
Format/Info                              : High Efficiency Video Coding
Codec ID                                 : V_MPEGH/ISO/HEVC
Duration                                 : 1 h 48 min
Bit rate                                 : 24.1 Mb/s
Width                                    : 3 840 pixels
Height                                   : 2 076 pixels
Original height                          : 2 160 pixels
Display aspect ratio                     : 16:9
Frame rate mode                          : Constant
Frame rate                               : 23.976 (24000/1001) FPS
Color space                              : YUV
Chroma subsampling                       : 4:2:0 (Type 2)
Bit depth                                : 10 bits
Bits/(Pixel*Frame)                       : 0.126
Stream size                              : 18.3 GiB (95%)
Language                                 : English
Default                                  : Yes
Forced                                   : No
Color range                              : Limited
Color primaries                          : BT.709
Transfer characteristics                 : BT.709
Matrix coefficients                      : BT.709

Audio
ID                                       : 2
Format                                   : E-AC-3
Format/Info                              : Enhanced AC-3
Commercial name                          : Dolby Digital Plus
Codec ID                                 : A_EAC3
Duration                                 : 1 h 48 min
Bit rate mode                            : Constant
Bit rate                                 : 640 kb/s
Channel(s)                               : 6 channels
Channel layout                           : L R C LFE Ls Rs
Sampling rate                            : 48.0 kHz
Frame rate                               : 31.250 FPS (1536 SPF)
Compression mode                         : Lossy
Stream size                              : 497 MiB (3%)
Language                                 : English
Service kind                             : Complete Main
Default                                  : Yes
Forced                                   : No

Text #1
ID                                       : 3
Format                                   : UTF-8
Codec ID                                 : S_TEXT/UTF8
Codec ID/Info                            : UTF-8 Plain Text
Title                                    : English (Forced)
Language                                 : English
Default                                  : Yes
Forced                                   : Yes

Text #2
ID                                       : 4
Format                                   : UTF-8
Codec ID                                 : S_TEXT/UTF8
Codec ID/Info                            : UTF-8 Plain Text
Title                                    : English
Language                                 : English
Default                                  : No
Forced                                   : No

Text #3
ID                                       : 5
Format                                   : UTF-8
Codec ID                                 : S_TEXT/UTF8
Codec ID/Info                            : UTF-8 Plain Text
Title                                    : English (SDH)
Language                                 : English
Default                                  : No
Forced                                   : No

Text #4
ID                                       : 6
Format                                   : UTF-8
Codec ID                                 : S_TEXT/UTF8
Codec ID/Info                            : UTF-8 Plain Text
Title                                    : Spanish
Language                                 : Spanish
Default                                  : No
Forced                                   : No



                                                                                                                                                                                                        
                                                                                                                                                                                                                                                                                                                                                                                                                                                                                                                                                                                                                                                                                                                                                                                                                                                        
48156e850243ab50b429661389b986cd.torrent (97.5 KB)

回复

使用道具 举报

您需要登录后才可以回帖 登录 | 立即注册

本版积分规则

5n电影网  |网站地图

本网站所有资源来自网络,如无意中侵犯了您的权益,请发邮件至 [email protected],立即清除相关链接

GMT+8, 2019-6-16 23:27 , Processed in 0.087816 second(s), 31 queries .

Powered by Discuz! X3.2

© 2001-2013 Comsenz Inc.

快速回复 返回顶部 返回列表