请选择 进入手机版 | 继续访问电脑版

5n电影网

 找回密码
 立即注册

[BD-4K] 俘虏国度/天逆反击战:地球起义 Captive.State.2019.INTERNAL.HDR.216...

[复制链接]
电影首发 发表于 2019-6-13 15:00:24 | 显示全部楼层 |阅读模式


帖子完整标题:俘虏国度/天逆反击战:地球起义 Captive.State.2019.INTERNAL.HDR.2160p.WEB.H265-DEFLATE 19.12GB




◎译  名 俘虏国度 / 天逆反击战:地球起义(港) / 异类占领(台)
◎片  名 Captive State
◎年  代 2019
◎产  地 美国
◎类  别 科幻 / 惊悚
◎语  言 英语
◎上映日期 2019-03-15(美国)
◎片  长 109分钟
◎导  演 鲁伯特·瓦耶特 Rupert Wyatt
◎编  剧 埃丽卡·比尼 Erica Beeney / 鲁伯特·瓦耶特 Rupert Wyatt
◎主  演 约翰·古德曼 John Goodman
      艾什顿·桑德斯 Ashton Sanders
      乔纳森·梅杰斯 Jonathan Majors
      维拉·法米加 Vera Farmiga
      凯文·杜恩 Kevin Dunn
      詹姆斯·兰索恩 James Ransone
      阿兰·卢克 Alan Ruck
      玛德琳·布鲁尔 Madeline Brewer
      机关枪凯利 Machine Gun Kelly
      凯文·J·奥康纳 Kevin J. O'Connor
      本·丹尼尔斯 Ben Daniels
      凯特琳·埃瓦尔德 Caitlin Ewald
      D·B·斯威尼 D.B. Sweeney
      瑞内·L·莫雷诺 Rene L. Moreno
      珊农·克奇兰 Shannon Cochran
      基基·莱恩 KiKi Layne
      马克·格拉佩 Marc Grapey
      丹尼·高德林 Danny Goldring
      简·巴克斯特·米勒 Jane Baxter Miller
      赛勒斯·亚历山大 Cyrus Alexander
      伊立沙·弗雷丁 Ilyssa Fradin
      莉茲·丽 Lizzy Leigh
      Barbara Elizabeth Maleski
      鲁斯·帕萨雷拉 Russ Panzarella


◎标  签 科幻 | 美国 | 惊悚 | 2019 | 灾难 | 悬疑 | 战争 | 无政府主义

◎简  介  

  影片讲述在地球已被外星人占领了10年之后的芝加哥市区,一股反抗势力异军突起,与服从派的政府势力产生了不可调和的矛盾,一场战斗由此而生。《俘虏国度》由焦点影业出品,将于3月29日在北美上映。
Video
ID                                       : 1
Format                                   : HEVC
Format/Info                              : High Efficiency Video Coding
Commercial name                          : HDR10
Codec ID                                 : V_MPEGH/ISO/HEVC
Duration                                 : 1 h 49 min
Bit rate                                 : 23.6 Mb/s
Width                                    : 3 840 pixels
Height                                   : 1 604 pixels
Original height                          : 2 160 pixels
Display aspect ratio                     : 16:9
Frame rate mode                          : Constant
Frame rate                               : 23.976 (24000/1001) FPS
Color space                              : YUV
Chroma subsampling                       : 4:2:0 (Type 2)
Bit depth                                : 10 bits
Bits/(Pixel*Frame)                       : 0.160
Stream size                              : 18.1 GiB (95%)
Default                                  : Yes
Forced                                   : No
Color range                              : Limited
Color primaries                          : BT.2020
Transfer characteristics                 : PQ
Matrix coefficients                      : BT.2020 non-constant
Mastering display color primaries        : BT.2020
Mastering display luminance              : min: 0.0050 cd/m2, max: 1000 cd/m2
Maximum Content Light Level              : 294 cd/m2
Maximum Frame-Average Light Level        : 64 cd/m2

Audio
ID                                       : 2
Format                                   : E-AC-3
Format/Info                              : Enhanced AC-3
Commercial name                          : Dolby Digital Plus
Codec ID                                 : A_EAC3
Duration                                 : 1 h 49 min
Bit rate mode                            : Constant
Bit rate                                 : 640 kb/s
Channel(s)                               : 6 channels
Channel layout                           : L R C LFE Ls Rs
Sampling rate                            : 48.0 kHz
Frame rate                               : 31.250 FPS (1536 SPF)
Compression mode                         : Lossy
Delay relative to video                  : 125 ms
Stream size                              : 502 MiB (3%)
Language                                 : English
Service kind                             : Complete Main
Default                                  : Yes
Forced                                   : No

Text #1
ID                                       : 3
Format                                   : UTF-8
Codec ID                                 : S_TEXT/UTF8
Codec ID/Info                            : UTF-8 Plain Text
Title                                    : English (Forced)
Language                                 : English
Default                                  : Yes
Forced                                   : Yes

Text #2
ID                                       : 4
Format                                   : UTF-8
Codec ID                                 : S_TEXT/UTF8
Codec ID/Info                            : UTF-8 Plain Text
Title                                    : English
Language                                 : English
Default                                  : No
Forced                                   : No

Text #3
ID                                       : 5
Format                                   : UTF-8
Codec ID                                 : S_TEXT/UTF8
Codec ID/Info                            : UTF-8 Plain Text
Title                                    : English (SDH)
Language                                 : English
Default                                  : No
Forced                                   : No

Text #4
ID                                       : 6
Format                                   : UTF-8
Codec ID                                 : S_TEXT/UTF8
Codec ID/Info                            : UTF-8 Plain Text
Title                                    : Spanish
Language                                 : Spanish
Default                                  : No
Forced                                   : No



                                                                                                                                                                                                        
                                                                                                                                                                                                                                                                                                                                                                                                                                                                                                                                                                                                                                                                                                                                                                                                                                                        
0c47ce9a066184769e73ed3b5ba93be2.torrent (96.32 KB)

回复

使用道具 举报

您需要登录后才可以回帖 登录 | 立即注册

本版积分规则

5n电影网  |网站地图

本网站所有资源来自网络,如无意中侵犯了您的权益,请发邮件至 [email protected],立即清除相关链接

GMT+8, 2019-9-21 15:25 , Processed in 0.080677 second(s), 31 queries .

Powered by Discuz! X3.2

© 2001-2013 Comsenz Inc.

快速回复 返回顶部 返回列表