请选择 进入手机版 | 继续访问电脑版

5n电影网

 找回密码
 立即注册

37号房间-约翰尼·雷德斯神秘之死 Room.37.The.Mysterious.Death.of...

[复制链接]
bt电影 发表于 2019-6-13 15:05:32 | 显示全部楼层 |阅读模式


帖子完整标题:37号房间 - 约翰尼·雷德斯神秘之死 Room.37.The.Mysterious.Death.of.Johnny.Thunders.2019.720p.BluRay.x264-SPOOKS 4.37GB




◎译  名 37号房间 - 约翰尼·雷德斯神秘之死
◎片  名 Room 37 - The Mysterious Death of Johnny Thunders
◎年  代 2019
◎产  地 美国
◎类  别 剧情 / 惊悚
◎语  言 英语
◎上映日期 2019-06-01(美国)
◎片  长 100分钟
◎导  演 Fernando Cordero Caballero / Vicente Cordero
◎编  剧 Fernando Cordero Caballero / Vicente Cordero
◎主  演 Leo Ramsey
      Devin McGregor Ketko
      蒂莫西·李·德普利斯特 Timothy Lee DePriest


◎简  介  

  Famed rock and roll guitarist Johnny Thunders arrives in New Orleans to get his life together after a toll of hardships, but instead falls into a dark journey and trail of events that are based on his real life unexplained mysterious death.
Video
ID                                       : 1
Format                                   : AVC
Format/Info                              : Advanced Video Codec
Format settings                          : CABAC / 12 Ref Frames
Format settings, CABAC                   : Yes
Format settings, ReFrames                : 12 frames
Codec ID                                 : V_MPEG4/ISO/AVC
Duration                                 : 1 h 41 min
Bit rate                                 : 5 736 kb/s
Width                                    : 1 280 pixels
Height                                   : 544 pixels
Display aspect ratio                     : 2.35:1
Frame rate mode                          : Constant
Frame rate                               : 23.976 (24000/1001) FPS
Color space                              : YUV
Chroma subsampling                       : 4:2:0
Bit depth                                : 8 bits
Scan type                                : Progressive
Bits/(Pixel*Frame)                       : 0.344
Stream size                              : 4.05 GiB (93%)
Writing library                          : x264 core 157 r2969 d4099dd
Encoding settings                        : cabac=1 / ref=12 / deblock=1:-3:-3 / analyse=0x3:0x133 / me=umh / subme=9 / psy=1 / psy_rd=1.00:0.00 / mixed_ref=1 / me_range=24 / chroma_me=1 / trellis=1 / 8x8dct=1 / cqm=0 / deadzone=21,11 / fast_pskip=0 / chroma_qp_offset=-2 / threads=17 / lookahead_threads=2 / sliced_threads=0 / nr=0 / decimate=1 / interlaced=0 / bluray_compat=0 / constrained_intra=0 / bframes=8 / b_pyramid=2 / b_adapt=2 / b_bias=0 / direct=3 / weightb=1 / open_gop=0 / weightp=2 / keyint=250 / keyint_min=23 / scenecut=40 / intra_refresh=0 / rc_lookahead=60 / rc=2pass / mbtree=1 / bitrate=5736 / ratetol=1.0 / qcomp=0.60 / qpmin=0 / qpmax=69 / qpstep=4 / cplxblur=20.0 / qblur=0.5 / vbv_maxrate=62500 / vbv_bufsize=78125 / nal_hrd=none / filler=0 / ip_ratio=1.40 / aq=1:1.00
Default                                  : Yes
Forced                                   : No

Audio
ID                                       : 2
Format                                   : AC-3
Format/Info                              : Audio Coding 3
Commercial name                          : Dolby Digital
Codec ID                                 : A_AC3
Duration                                 : 1 h 41 min
Bit rate mode                            : Constant
Bit rate                                 : 448 kb/s
Channel(s)                               : 6 channels
Channel layout                           : L R C LFE Ls Rs
Sampling rate                            : 48.0 kHz
Frame rate                               : 31.250 FPS (1536 SPF)
Bit depth                                : 16 bits
Compression mode                         : Lossy
Stream size                              : 324 MiB (7%)
Language                                 : English
Service kind                             : Complete Main
Default                                  : Yes
Forced                                   : No

Menu
00:00:00.000                             : en:Chapter 01
00:07:14.434                             : en:Chapter 02
00:14:49.889                             : en:Chapter 03
00:20:55.254                             : en:Chapter 04
00:27:25.144                             : en:Chapter 05
00:33:22.501                             : en:Chapter 06
00:41:51.509                             : en:Chapter 07
00:49:29.967                             : en:Chapter 08
00:57:04.922                             : en:Chapter 09
01:04:14.351                             : en:Chapter 10
01:12:34.350                             : en:Chapter 11
01:18:51.727                             : en:Chapter 12
01:25:07.102                             : en:Chapter 13
01:32:48.063                             : en:Chapter 14
01:38:44.419                             : en:Chapter 15



                                                                                                                                                                                                        
                                                                                                                                                                                                                                                                                                                                                                                                                                                                                                                                                                                                                                                                                                                                                                                                                                                        
1fd96c7bb4a898ae1fdf6da323a0a60e.torrent (44.54 KB)

回复

使用道具 举报

您需要登录后才可以回帖 登录 | 立即注册

本版积分规则

5n电影网  |网站地图

本网站所有资源来自网络,如无意中侵犯了您的权益,请发邮件至 [email protected],立即清除相关链接

GMT+8, 2019-6-26 01:05 , Processed in 0.071086 second(s), 31 queries .

Powered by Discuz! X3.2

© 2001-2013 Comsenz Inc.

快速回复 返回顶部 返回列表