请选择 进入手机版 | 继续访问电脑版

5n电影网

 找回密码
 立即注册

野马 The.Mustang.2019.720p.BluRay.x264-ROVERS 4.37GB

[复制链接]
高清电影 发表于 2019-6-13 15:05:32 | 显示全部楼层 |阅读模式


帖子完整标题:野马 The.Mustang.2019.720p.BluRay.x264-ROVERS 4.37GB




◎译  名 野马
◎片  名 The Mustang
◎年  代 2019
◎产  地 法国 / 美国
◎类  别 剧情
◎语  言 英语
◎上映日期 2019-03-15(美国)
◎片  长 96分钟(圣丹斯电影节)
◎导  演 劳瑞·德·克莱蒙特-托奈尔 Laure de Clermont-Tonnerre
◎编  剧 劳瑞·德·克莱蒙特-托奈尔 Laure de Clermont-Tonnerre / Brock Norman Brock / 莫娜·法斯特欧德 Mona Fastvold
◎主  演 马提亚斯·修奈尔 Matthias Schoenaerts
      康妮·布里登 Connie Britton
      布鲁斯·邓恩 Bruce Dern
      乔什·斯图沃特 Josh Stewart
      吉第安·艾朵 Gideon Adlon
      杰森·米切尔 Jason Mitchell
      凯莉·理查德森 Kelly Richardson
      Santina Muha
      Jasmeet Baduwalia
      Heath Hensley


◎标  签 美国 | 2019 | 剧情 | 法国 | 真实事件 | 野马 | 马提亚斯·修奈尔 | 美国电影

◎简  介  

  法国导演Laure de Clermont-Tonnerre(《纯真曲》《追忆似水年华》)执导并同Mona Fastvold(《战前童年》《梦游者》)和Brock Norman Brock(《国境卫士》《布朗森》)编写剧本,已于内华达开拍。修奈尔饰演一名暴力罪犯Roman Coleman,得到了参与一项康复治疗程序的机会,其中包括训练野蛮的野马。斯图沃特饰演Coleman的狱友,萨兰登饰演监狱的治疗专家,艾朵饰演Coleman的女儿。
Video
ID                                       : 1
Format                                   : AVC
Format/Info                              : Advanced Video Codec
Format settings                          : CABAC / 5 Ref Frames
Format settings, CABAC                   : Yes
Format settings, ReFrames                : 5 frames
Codec ID                                 : V_MPEG4/ISO/AVC
Duration                                 : 1 h 36 min
Bit rate                                 : 4 992 kb/s
Width                                    : 1 200 pixels
Height                                   : 720 pixels
Display aspect ratio                     : 5:3
Frame rate mode                          : Constant
Frame rate                               : 23.976 (24000/1001) FPS
Color space                              : YUV
Chroma subsampling                       : 4:2:0
Bit depth                                : 8 bits
Scan type                                : Progressive
Bits/(Pixel*Frame)                       : 0.241
Stream size                              : 3.36 GiB (77%)
Writing library                          : x264 core 157 r2969 d4099dd
Encoding settings                        : cabac=1 / ref=5 / deblock=1:-3:-3 / analyse=0x3:0x133 / me=umh / subme=8 / psy=1 / psy_rd=1.00:0.00 / mixed_ref=1 / me_range=16 / chroma_me=1 / trellis=1 / 8x8dct=1 / cqm=0 / deadzone=21,11 / fast_pskip=0 / chroma_qp_offset=-2 / threads=22 / lookahead_threads=3 / sliced_threads=0 / nr=0 / decimate=1 / interlaced=0 / bluray_compat=0 / constrained_intra=0 / bframes=3 / b_pyramid=2 / b_adapt=1 / b_bias=0 / direct=3 / weightb=1 / open_gop=0 / weightp=2 / keyint=250 / keyint_min=23 / scenecut=40 / intra_refresh=0 / rc_lookahead=50 / rc=2pass / mbtree=1 / bitrate=4992 / ratetol=1.0 / qcomp=0.60 / qpmin=0 / qpmax=69 / qpstep=4 / cplxblur=20.0 / qblur=0.5 / vbv_maxrate=62500 / vbv_bufsize=78125 / nal_hrd=none / filler=0 / ip_ratio=1.40 / aq=1:1.00
Default                                  : Yes
Forced                                   : No

Audio
ID                                       : 2
Format                                   : DTS
Format/Info                              : Digital Theater Systems
Codec ID                                 : A_DTS
Duration                                 : 1 h 36 min
Bit rate mode                            : Constant
Bit rate                                 : 1 509 kb/s
Channel(s)                               : 6 channels
Channel layout                           : C L R Ls Rs LFE
Sampling rate                            : 48.0 kHz
Frame rate                               : 93.750 FPS (512 SPF)
Bit depth                                : 24 bits
Compression mode                         : Lossy
Stream size                              : 1.01 GiB (23%)
Language                                 : English
Default                                  : Yes
Forced                                   : No

Menu
00:00:00.000                             : en:00:00:00.000
00:05:16.399                             : en:00:05:16.399
00:09:23.062                             : en:00:09:23.062
00:14:55.228                             : en:00:14:55.228
00:18:54.842                             : en:00:18:54.842
00:24:36.767                             : en:00:24:36.767
00:28:44.431                             : en:00:28:44.431
00:31:41.233                             : en:00:31:41.233
00:36:22.097                             : en:00:36:22.097
00:42:52.737                             : en:00:42:52.737
00:47:03.154                             : en:00:47:03.154
00:51:05.854                             : en:00:51:05.854
00:56:38.395                             : en:00:56:38.395
01:01:18.133                             : en:01:01:18.133
01:06:50.632                             : en:01:06:50.632
01:13:47.131                             : en:01:13:47.131
01:17:55.087                             : en:01:17:55.087
01:23:27.628                             : en:01:23:27.628
01:28:40.315                             : en:01:28:40.315
01:30:42.520                             : en:01:30:42.520



                                                                                                                                                                                                        
                                                                                                                                                                                                                                                                                                                                                                                                                                                                                                                                                                                                                                                                                                                                                                                                                                                        
7fecd9bb75d116c0fa3fa727d2998e72.torrent (44.59 KB)

回复

使用道具 举报

您需要登录后才可以回帖 登录 | 立即注册

本版积分规则

5n电影网  |网站地图

本网站所有资源来自网络,如无意中侵犯了您的权益,请发邮件至 [email protected],立即清除相关链接

GMT+8, 2019-9-21 15:26 , Processed in 0.083170 second(s), 31 queries .

Powered by Discuz! X3.2

© 2001-2013 Comsenz Inc.

快速回复 返回顶部 返回列表