请选择 进入手机版 | 继续访问电脑版

5n电影网

 找回密码
 立即注册

賣身契 The.Contract.1978.MANDARiN.DUBBED.720p.BluRay.x264-REGRET 4.37GB

[复制链接]
高清电影 发表于 2019-6-13 15:05:32 | 显示全部楼层 |阅读模式


帖子完整标题:賣身契 The.Contract.1978.MANDARiN.DUBBED.720p.BluRay.x264-REGRET 4.37GB




◎译  名 卖身契 / The Contract
◎片  名 賣身契
◎年  代 1978
◎产  地 香港
◎类  别 喜剧
◎语  言 英语 / 粤语
◎上映日期 1978-08-03
◎IMDb评分  6.6/10 from 219 users
◎片  长 96 分钟
◎导  演 许冠文
◎编  剧 许冠文
◎主  演 许冠文
      许冠英
      许冠杰


◎标  签 香港 | 喜剧 | 许冠文 | 香港电影 | 许冠杰 | 许氏喜剧 | 许冠英 | 1978

◎简  介  

  志文(许冠文 饰)是电视台一名跑龙套,自认为很有才华,所以一直郁郁不得志。志文的弟弟志新(许冠英 饰)是一个天才发明家,最近他发明了一部笑弹机,能让人大笑不止。正当志文得过且过之时,另外一家电视台请他去客窜一回主持,志文信心十足、带着弟弟的新发明前往晚会现场,志文的卖力 表演和笑弹机的威力令在场的所有人都大笑不已,节目的效果超过了预期。于是,这家电视台许诺高薪想挖志文过来。志文也十分想走,无奈自己和原来的电视台签了8年的卖身契,如果违约将承担巨额赔款。一个晚上,兄弟俩一起潜入了电视台的保险库,想将卖身契偷回来……

◎获奖情况  

  第15届台北金马影展(1978)
  金马奖 最佳剧情片(提名)
  金马奖 最佳导演(提名) 许冠文
  金马奖 最佳剪辑 张耀宗


Video
ID                                       : 1
Format                                   : AVC
Format/Info                              : Advanced Video Codec
Format settings                          : CABAC / 5 Ref Frames
Format settings, CABAC                   : Yes
Format settings, ReFrames                : 5 frames
Codec ID                                 : V_MPEG4/ISO/AVC
Duration                                 : 1 h 36 min
Bit rate                                 : 5 808 kb/s
Width                                    : 1 280 pixels
Height                                   : 544 pixels
Display aspect ratio                     : 2.35:1
Frame rate mode                          : Constant
Frame rate                               : 23.976 (24000/1001) FPS
Color space                              : YUV
Chroma subsampling                       : 4:2:0
Bit depth                                : 8 bits
Scan type                                : Progressive
Bits/(Pixel*Frame)                       : 0.348
Stream size                              : 3.93 GiB (90%)
Writing library                          : x264 core 157 r2935 545de2f
Encoding settings                        : cabac=1 / ref=5 / deblock=1:-3:-3 / analyse=0x3:0x133 / me=umh / subme=9 / psy=1 / psy_rd=1.00:0.00 / mixed_ref=1 / me_range=16 / chroma_me=1 / trellis=2 / 8x8dct=1 / cqm=0 / deadzone=21,11 / fast_pskip=0 / chroma_qp_offset=-2 / threads=17 / lookahead_threads=1 / sliced_threads=0 / nr=0 / decimate=1 / interlaced=0 / bluray_compat=0 / constrained_intra=0 / bframes=3 / b_pyramid=2 / b_adapt=1 / b_bias=0 / direct=3 / weightb=1 / open_gop=0 / weightp=2 / keyint=240 / keyint_min=24 / scenecut=40 / intra_refresh=0 / rc_lookahead=50 / rc=2pass / mbtree=1 / bitrate=5808 / ratetol=1.0 / qcomp=0.60 / qpmin=0 / qpmax=69 / qpstep=4 / cplxblur=20.0 / qblur=0.5 / ip_ratio=1.40 / aq=1:1.00
Language                                 : English
Default                                  : Yes
Forced                                   : No

Audio
ID                                       : 2
Format                                   : AC-3
Format/Info                              : Audio Coding 3
Commercial name                          : Dolby Digital
Codec ID                                 : A_AC3
Duration                                 : 1 h 36 min
Bit rate mode                            : Constant
Bit rate                                 : 640 kb/s
Channel(s)                               : 6 channels
Channel layout                           : L R C LFE Ls Rs
Sampling rate                            : 48.0 kHz
Frame rate                               : 31.250 FPS (1536 SPF)
Bit depth                                : 16 bits
Compression mode                         : Lossy
Stream size                              : 443 MiB (10%)
Language                                 : Chinese
Service kind                             : Complete Main
Default                                  : Yes
Forced                                   : No

Menu
00:00:00.000                             : en:00:00:00.000
00:04:22.596                             : en:00:04:22.596
00:08:06.528                             : en:00:08:06.528
00:11:39.115                             : en:00:11:39.115
00:16:34.744                             : en:00:16:34.744
00:21:48.432                             : en:00:21:48.432
00:24:17.498                             : en:00:24:17.498
00:29:38.610                             : en:00:29:38.610
00:35:41.306                             : en:00:35:41.306
00:40:48.738                             : en:00:40:48.738
00:44:04.642                             : en:00:44:04.642
00:49:39.351                             : en:00:49:39.351
00:54:55.501                             : en:00:54:55.501
00:58:20.580                             : en:00:58:20.580
01:03:13.665                             : en:01:03:13.665
01:08:21.556                             : en:01:08:21.556
01:12:29.595                             : en:01:12:29.595
01:18:54.772                             : en:01:18:54.772
01:24:46.039                             : en:01:24:46.039
01:28:41.066                             : en:01:28:41.066



                                                                                                                                                                                                        
                                                                                                                                                                                                                                                                                                                                                                                                                                                                                                                                                                                                                                                                                                                                                                                                                                                        
bc507253b970918294a58a1db2b52bd9.torrent (44.68 KB)

回复

使用道具 举报

您需要登录后才可以回帖 登录 | 立即注册

本版积分规则

5n电影网  |网站地图

本网站所有资源来自网络,如无意中侵犯了您的权益,请发邮件至 [email protected],立即清除相关链接

GMT+8, 2019-9-21 15:28 , Processed in 0.085506 second(s), 31 queries .

Powered by Discuz! X3.2

© 2001-2013 Comsenz Inc.

快速回复 返回顶部 返回列表