请选择 进入手机版 | 继续访问电脑版

5n电影网

 找回密码
 立即注册

加密货币 Crypto.2019.720p.BluRay.x264-ROVERS 5.47GB

[复制链接]
电影下载 发表于 2019-6-13 15:05:32 | 显示全部楼层 |阅读模式


帖子完整标题:加密货币 Crypto.2019.720p.BluRay.x264-ROVERS 5.47GB




◎译  名 加密货币
◎片  名 Crypto
◎年  代 2019
◎产  地 美国
◎类  别 剧情 / 惊悚 / 犯罪
◎语  言 英语
◎上映日期 2019-04-12(美国)
◎IMDb评分  6.0/10 from 1215 users
◎片  长 105分钟
◎导  演 约翰·斯托伯格 John Stalberg
◎编  剧 卡莱尔·尤班克 Carlyle Eubank / 大卫·弗里杰里奥 David Frigerio / Jeff Ingber
◎主  演 Mareli Miniutti
      库尔特·拉塞尔 Kurt Russell
      阿丽克西斯·布莱德尔 Alexis Bledel
      卢克·海姆斯沃斯 Luke Hemsworth
      文森特·卡塞瑟 Vincent Kartheiser
      吉尔·亨内斯 Jill Hennessy
      博·纳普 Beau Knapp
      玛拉雅·瑞沃拉·德鲁  Malaya Rivera Drew
      Gabe Fazio
      Marsha Dietlein
      杰雷米·哈里斯 Jeremie Harris
      Jennifer Delora


◎标  签 犯罪 | 美国 | 美国电影 | 剧情 | 2019 | 悬疑 | 惊悚 | 比特币

◎简  介  

  A young agent is tasked with investigating a tangled web of corruption and fraud in New York.
Video
ID                                       : 1
Format                                   : AVC
Format/Info                              : Advanced Video Codec
Format settings                          : CABAC / 5 Ref Frames
Format settings, CABAC                   : Yes
Format settings, ReFrames                : 5 frames
Codec ID                                 : V_MPEG4/ISO/AVC
Duration                                 : 1 h 45 min
Bit rate                                 : 5 884 kb/s
Width                                    : 1 280 pixels
Height                                   : 480 pixels
Display aspect ratio                     : 2.667
Frame rate mode                          : Constant
Frame rate                               : 23.976 (24000/1001) FPS
Color space                              : YUV
Chroma subsampling                       : 4:2:0
Bit depth                                : 8 bits
Scan type                                : Progressive
Bits/(Pixel*Frame)                       : 0.399
Stream size                              : 4.35 GiB (80%)
Writing library                          : x264 core 157 r2969 d4099dd
Encoding settings                        : cabac=1 / ref=5 / deblock=1:-3:-3 / analyse=0x3:0x133 / me=umh / subme=8 / psy=1 / psy_rd=1.00:0.00 / mixed_ref=1 / me_range=16 / chroma_me=1 / trellis=1 / 8x8dct=1 / cqm=0 / deadzone=21,11 / fast_pskip=0 / chroma_qp_offset=-2 / threads=15 / lookahead_threads=2 / sliced_threads=0 / nr=0 / decimate=1 / interlaced=0 / bluray_compat=0 / constrained_intra=0 / bframes=3 / b_pyramid=2 / b_adapt=1 / b_bias=0 / direct=3 / weightb=1 / open_gop=0 / weightp=2 / keyint=250 / keyint_min=23 / scenecut=40 / intra_refresh=0 / rc_lookahead=50 / rc=2pass / mbtree=1 / bitrate=5884 / ratetol=1.0 / qcomp=0.60 / qpmin=0 / qpmax=69 / qpstep=4 / cplxblur=20.0 / qblur=0.5 / vbv_maxrate=62500 / vbv_bufsize=78125 / nal_hrd=none / filler=0 / ip_ratio=1.40 / aq=1:1.00
Default                                  : Yes
Forced                                   : No

Audio
ID                                       : 2
Format                                   : DTS
Format/Info                              : Digital Theater Systems
Codec ID                                 : A_DTS
Duration                                 : 1 h 45 min
Bit rate mode                            : Constant
Bit rate                                 : 1 509 kb/s
Channel(s)                               : 6 channels
Channel layout                           : C L R Ls Rs LFE
Sampling rate                            : 48.0 kHz
Frame rate                               : 93.750 FPS (512 SPF)
Bit depth                                : 24 bits
Compression mode                         : Lossy
Stream size                              : 1.12 GiB (20%)
Language                                 : English
Default                                  : Yes
Forced                                   : No

Text
ID                                       : 3
Format                                   : UTF-8
Codec ID                                 : S_TEXT/UTF8
Codec ID/Info                            : UTF-8 Plain Text
Duration                                 : 1 h 14 min
Bit rate                                 : 0 b/s
Count of elements                        : 11
Stream size                              : 323 Bytes (0%)
Title                                    : Forced
Language                                 : English
Default                                  : Yes
Forced                                   : Yes

Menu
00:00:00.000                             : en:00:00:00.000
00:06:11.496                             : en:00:06:11.496
00:14:17.065                             : en:00:14:17.065
00:19:25.664                             : en:00:19:25.664
00:26:46.313                             : en:00:26:46.313
00:33:37.682                             : en:00:33:37.682
00:39:04.384                             : en:00:39:04.384
00:47:56.082                             : en:00:47:56.082
00:52:54.880                             : en:00:52:54.880
00:56:47.654                             : en:00:56:47.654
01:04:28.031                             : en:01:04:28.031
01:13:03.879                             : en:01:13:03.879
01:18:11.270                             : en:01:18:11.270
01:26:40.946                             : en:01:26:40.946
01:33:37.445                             : en:01:33:37.445
01:38:01.209                             : en:01:38:01.209



                                                                                                                                                                                                        
                                                                                                                                                                                                                                                                                                                                                                                                                                                                                                                                                                                                                                                                                                                                                                                                                                                        
6da3fe7e99274695009d66e630dc6199.torrent (28.18 KB)

回复

使用道具 举报

您需要登录后才可以回帖 登录 | 立即注册

本版积分规则

5n电影网  |网站地图

本网站所有资源来自网络,如无意中侵犯了您的权益,请发邮件至 [email protected],立即清除相关链接

GMT+8, 2019-9-16 13:52 , Processed in 0.970862 second(s), 89 queries .

Powered by Discuz! X3.2

© 2001-2013 Comsenz Inc.

快速回复 返回顶部 返回列表