请选择 进入手机版 | 继续访问电脑版

5n电影网

 找回密码
 立即注册

能屈能伸大丈夫/大城小境 The.Prisoner.of.Second.Avenue.1975.720p.Bl...

[复制链接]
bt下载 发表于 2019-6-13 15:05:32 | 显示全部楼层 |阅读模式


帖子完整标题:能屈能伸大丈夫/大城小境 The.Prisoner.of.Second.Avenue.1975.720p.BluRay.x264-PSYCHD 5.46GB




◎译  名 能屈能伸大丈夫 / 大城小境 / 纽约屋檐下
◎片  名 The Prisoner of Second Avenue
◎年  代 1975
◎产  地 美国
◎类  别 喜剧
◎语  言 英语
◎上映日期 1975-03-14
◎IMDb评分  6.7/10 from 2706 users
◎片  长 98 分钟
◎导  演 Melvin Frank
◎编  剧 Neil Simon
◎主  演 Anne Bancroft
      Jack Lemmon
      Gene Saks


◎标  签 喜剧 | 美国 | AnneBancroft | 1975 | 安妮·班克劳馥 | JackLemmon | 爱情 | 美國電影

◎简  介  

  暂无相关剧情介绍
Video
ID                                       : 1
Format                                   : AVC
Format/Info                              : Advanced Video Codec
Format settings                          : CABAC / 5 Ref Frames
Format settings, CABAC                   : Yes
Format settings, ReFrames                : 5 frames
Codec ID                                 : V_MPEG4/ISO/AVC
Duration                                 : 1 h 38 min
Bit rate                                 : 6 464 kb/s
Width                                    : 1 280 pixels
Height                                   : 536 pixels
Display aspect ratio                     : 2.40:1
Frame rate mode                          : Constant
Frame rate                               : 23.976 (24000/1001) FPS
Color space                              : YUV
Chroma subsampling                       : 4:2:0
Bit depth                                : 8 bits
Scan type                                : Progressive
Bits/(Pixel*Frame)                       : 0.393
Stream size                              : 4.43 GiB (81%)
Writing library                          : x264 core 157 r2970 5493be8
Encoding settings                        : cabac=1 / ref=5 / deblock=1:-3:-3 / analyse=0x3:0x113 / me=umh / subme=8 / psy=1 / psy_rd=1.10:0.00 / mixed_ref=1 / me_range=24 / chroma_me=1 / trellis=2 / 8x8dct=1 / cqm=0 / deadzone=21,11 / fast_pskip=1 / chroma_qp_offset=-2 / threads=17 / lookahead_threads=2 / sliced_threads=0 / nr=0 / decimate=1 / interlaced=0 / bluray_compat=0 / constrained_intra=0 / bframes=3 / b_pyramid=2 / b_adapt=2 / b_bias=0 / direct=3 / weightb=1 / open_gop=0 / weightp=2 / keyint=240 / keyint_min=24 / scenecut=40 / intra_refresh=0 / rc_lookahead=50 / rc=2pass / mbtree=1 / bitrate=6464 / ratetol=1.0 / qcomp=0.60 / qpmin=0 / qpmax=69 / qpstep=4 / cplxblur=20.0 / qblur=0.5 / ip_ratio=1.40 / aq=3:0.70
Default                                  : Yes
Forced                                   : No

Audio
ID                                       : 2
Format                                   : DTS
Format/Info                              : Digital Theater Systems
Codec ID                                 : A_DTS
Duration                                 : 1 h 38 min
Bit rate mode                            : Constant
Bit rate                                 : 1 509 kb/s
Channel(s)                               : 2 channels
Channel layout                           : L R
Sampling rate                            : 48.0 kHz
Frame rate                               : 93.750 FPS (512 SPF)
Bit depth                                : 24 bits
Compression mode                         : Lossy
Stream size                              : 1.03 GiB (19%)
Language                                 : English
Default                                  : Yes
Forced                                   : No

Text #1
ID                                       : 3
Format                                   : UTF-8
Codec ID                                 : S_TEXT/UTF8
Codec ID/Info                            : UTF-8 Plain Text
Duration                                 : 1 h 36 min
Bit rate                                 : 96 b/s
Count of elements                        : 2288
Stream size                              : 68.4 KiB (0%)
Language                                 : English
Default                                  : No
Forced                                   : No

Text #2
ID                                       : 4
Format                                   : UTF-8
Codec ID                                 : S_TEXT/UTF8
Codec ID/Info                            : UTF-8 Plain Text
Duration                                 : 1 h 36 min
Bit rate                                 : 97 b/s
Count of elements                        : 2327
Stream size                              : 69.2 KiB (0%)
Title                                    : SDH
Language                                 : English
Default                                  : No
Forced                                   : No

Menu
00:00:00.000                             : en:Chapter 01
00:04:09.416                             : en:Chapter 02
00:06:47.657                             : en:Chapter 03
00:10:58.741                             : en:Chapter 04
00:14:02.633                             : en:Chapter 05
00:16:56.891                             : en:Chapter 06
00:19:04.143                             : en:Chapter 07
00:23:07.428                             : en:Chapter 08
00:26:48.524                             : en:Chapter 09
00:31:35.977                             : en:Chapter 10
00:35:27.584                             : en:Chapter 11
00:38:21.508                             : en:Chapter 12
00:41:22.855                             : en:Chapter 13
00:44:37.258                             : en:Chapter 14
00:48:08.219                             : en:Chapter 15
00:52:33.400                             : en:Chapter 16
00:55:46.843                             : en:Chapter 17
01:02:37.212                             : en:Chapter 18
01:06:16.764                             : en:Chapter 19
01:10:06.327                             : en:Chapter 20
01:14:12.239                             : en:Chapter 21
01:16:23.120                             : en:Chapter 22
01:18:44.053                             : en:Chapter 23
01:21:19.750                             : en:Chapter 24
01:23:45.938                             : en:Chapter 25
01:27:43.300                             : en:Chapter 26
01:33:10.126                             : en:Chapter 27
01:36:40.545                             : en:Chapter 28



                                                                                                                                                                                                        
                                                                                                                                                                                                                                                                                                                                                                                                                                                                                                                                                                                                                                                                                                                                                                                                                                                        
a996fc072d1c40ddd7941a5e913d067c.torrent (28.08 KB)

回复

使用道具 举报

您需要登录后才可以回帖 登录 | 立即注册

本版积分规则

5n电影网  |网站地图

本网站所有资源来自网络,如无意中侵犯了您的权益,请发邮件至 [email protected],立即清除相关链接

GMT+8, 2019-6-26 00:35 , Processed in 0.068554 second(s), 31 queries .

Powered by Discuz! X3.2

© 2001-2013 Comsenz Inc.

快速回复 返回顶部 返回列表