请选择 进入手机版 | 继续访问电脑版

5n电影网

 找回密码
 立即注册

摇摆乐时代/摇曳时光 Swing.Time.1936.720p.BluRay.X264-AMIABLE 5.47GB

[复制链接]
高清bt 发表于 2019-6-13 15:05:32 | 显示全部楼层 |阅读模式


帖子完整标题:摇摆乐时代/摇曳时光 Swing.Time.1936.720p.BluRay.X264-AMIABLE 5.47GB




◎译  名 摇摆乐时代 / 摇曳时光 / 欢乐时光 / 风月无边
◎片  名 Swing Time
◎年  代 1936
◎产  地 美国
◎类  别 喜剧 / 爱情 / 歌舞
◎语  言 英语
◎上映日期 1936-08-27
◎IMDb评分  7.6/10 from 10976 users
◎片  长 103 分钟
◎导  演 George Stevens
◎编  剧 Howard Lindsay / Allan Scott
◎主  演 Fred Astaire
      Ginger Rogers
      Victor Moore
      Helen Broderick


◎标  签 美国 | 歌舞 | 歌舞片 | 1936 | 1930s | FredAstaire | 美国电影 | 喜剧

◎简  介  

  约翰(弗雷德·阿斯泰尔 Fred Astaire 饰)是一名极富才华的舞蹈家,歌手卡德(维克托·摩尔 Victor Moore 饰)是约翰最好的朋友兼搭档,两人之间的友谊十分深厚。约翰一心想要迎娶自己的青梅竹马玛格丽特(Betty Furness 饰),但卡德却并不看好这桩婚事。为了搅黄约翰的婚礼,卡德找到了各种借口拖延时间,导致约翰最终错过了结婚典礼。愤怒玛格丽特和父亲要求约翰拿来两万五千美元,方可得到他们的原谅,无奈之下约翰只得踏上了筹钱的旅途。
约翰和卡德来到了纽约,在一场意外中邂逅了名为佩妮(金格尔·罗杰斯 Ginger Rogers 饰)的女子。一番波折之后,约翰发现佩妮是一名舞蹈教练,不仅如此,两人的节奏亦十分合拍,于是决定组成搭档。

◎获奖情况  

  第9届奥斯卡金像奖(1937)
  最佳原创歌曲 杰罗姆·克恩 / 多萝茜·费尔兹
  最佳舞蹈指导(提名) 赫米斯·潘


Video
ID                                       : 1
Format                                   : AVC
Format/Info                              : Advanced Video Codec
Format settings                          : CABAC / 5 Ref Frames
Format settings, CABAC                   : Yes
Format settings, ReFrames                : 5 frames
Codec ID                                 : V_MPEG4/ISO/AVC
Duration                                 : 1 h 43 min
Bit rate                                 : 6 969 kb/s
Width                                    : 992 pixels
Height                                   : 720 pixels
Display aspect ratio                     : 1.378
Frame rate mode                          : Constant
Frame rate                               : 23.976 (24000/1001) FPS
Color space                              : YUV
Chroma subsampling                       : 4:2:0
Bit depth                                : 8 bits
Scan type                                : Progressive
Bits/(Pixel*Frame)                       : 0.407
Stream size                              : 5.05 GiB (92%)
Writing library                          : x264 core 157 r2970 5493be8
Encoding settings                        : cabac=1 / ref=5 / deblock=1:-3:-3 / analyse=0x3:0x113 / me=umh / subme=8 / psy=1 / psy_rd=1.15:0.00 / mixed_ref=1 / me_range=24 / chroma_me=1 / trellis=2 / 8x8dct=1 / cqm=0 / deadzone=21,11 / fast_pskip=1 / chroma_qp_offset=-2 / threads=22 / lookahead_threads=3 / sliced_threads=0 / nr=0 / decimate=1 / interlaced=0 / bluray_compat=0 / constrained_intra=0 / bframes=3 / b_pyramid=2 / b_adapt=2 / b_bias=0 / direct=3 / weightb=1 / open_gop=0 / weightp=2 / keyint=240 / keyint_min=24 / scenecut=40 / intra_refresh=0 / rc_lookahead=50 / rc=2pass / mbtree=1 / bitrate=6969 / ratetol=1.0 / qcomp=0.60 / qpmin=0 / qpmax=69 / qpstep=4 / cplxblur=20.0 / qblur=0.5 / ip_ratio=1.40 / aq=3:0.70
Default                                  : Yes
Forced                                   : No

Audio
ID                                       : 2
Format                                   : FLAC
Format/Info                              : Free Lossless Audio Codec
Codec ID                                 : A_FLAC
Duration                                 : 1 h 43 min
Bit rate mode                            : Variable
Bit rate                                 : 568 kb/s
Channel(s)                               : 1 channel
Channel layout                           : C
Sampling rate                            : 48.0 kHz
Frame rate                               : 11.719 FPS (4096 SPF)
Bit depth                                : 24 bits
Compression mode                         : Lossless
Stream size                              : 421 MiB (8%)
Writing library                          : libFLAC 1.2.1 (UTC 2007-09-17)
Language                                 : English
Default                                  : Yes
Forced                                   : No

Text #1
ID                                       : 3
Format                                   : UTF-8
Codec ID                                 : S_TEXT/UTF8
Codec ID/Info                            : UTF-8 Plain Text
Duration                                 : 1 h 42 min
Bit rate                                 : 60 b/s
Count of elements                        : 1329
Stream size                              : 45.4 KiB (0%)
Language                                 : English
Default                                  : No
Forced                                   : No

Text #2
ID                                       : 4
Format                                   : UTF-8
Codec ID                                 : S_TEXT/UTF8
Codec ID/Info                            : UTF-8 Plain Text
Duration                                 : 1 h 43 min
Bit rate                                 : 62 b/s
Count of elements                        : 1381
Stream size                              : 46.9 KiB (0%)
Title                                    : SDH
Language                                 : English
Default                                  : No
Forced                                   : No

Menu
00:00:00.000                             : en:Chapter 01
00:09:11.301                             : en:Chapter 02
00:14:29.410                             : en:Chapter 03
00:21:50.643                             : en:Chapter 04
00:31:58.917                             : en:Chapter 05
00:37:01.594                             : en:Chapter 06
00:42:15.825                             : en:Chapter 07
00:50:16.931                             : en:Chapter 08
00:54:29.266                             : en:Chapter 09
00:57:38.455                             : en:Chapter 10
01:07:27.043                             : en:Chapter 11
01:13:02.837                             : en:Chapter 12
01:21:19.249                             : en:Chapter 13
01:25:59.154                             : en:Chapter 14
01:34:24.659                             : en:Chapter 15



                                                                                                                                                                                                        
                                                                                                                                                                                                                                                                                                                                                                                                                                                                                                                                                                                                                                                                                                                                                                                                                                                        
da3001c5b4149e36e0645647e114ca91.torrent (28.2 KB)

回复

使用道具 举报

您需要登录后才可以回帖 登录 | 立即注册

本版积分规则

5n电影网  |网站地图

本网站所有资源来自网络,如无意中侵犯了您的权益,请发邮件至 [email protected],立即清除相关链接

GMT+8, 2019-8-26 01:32 , Processed in 0.157121 second(s), 31 queries .

Powered by Discuz! X3.2

© 2001-2013 Comsenz Inc.

快速回复 返回顶部 返回列表