请选择 进入手机版 | 继续访问电脑版

5n电影网

 找回密码
 立即注册

名侦探柯南:漆黑的追踪者 Detective.Conan.The.Raven.Chaser.2009.1080...

[复制链接]
电影首发 发表于 2019-6-14 22:51:27 | 显示全部楼层 |阅读模式
:名侦探柯南:漆黑的追踪者 Detective.Conan.The.Raven.Chaser.2009.1080p.BluRay.x264-SSF 6.56GB




◎译  名 名侦探柯南:漆黑的追踪者 / Detective Conan: The Raven Chaser / 名侦探柯南2009:漆黑的追迹者 / 名侦探柯南:剧场版第13部 / 名侦探柯南:漆黑的追迹者
◎片  名 名探偵コナン 漆黒の追跡者
◎年  代 2009
◎产  地 日本
◎类  别 动画 / 悬疑
◎语  言 日语
◎上映日期 2009-04-18(日本) / 2010-01-14(中国大陆)
◎片  长 107分钟
◎导  演 山本泰一郎
◎编  剧 古内一成
◎主  演 高山南 Minami Takayama
      山崎和佳奈 Wakana Yamazaki
      神谷明 Akira Kamiya
      林原惠美 Megumi Hayashibara
      岩居由希子 Yukiko Iwai
      高木涉 Wataru Takagi
      大谷育江 Ikue Ootani
      绪方贤一 Kenichi Ogata
      堀川亮 Ry? Horikawa
      宫村优子 Y?ko Miyamura
      松井菜樱子 Naoko Matsui
      山口胜平 Kappei Yamaguchi
      菅原正志 Masashi Sugawara
      折笠富美子 Fumiko Orikasa
      堀之纪 Yukitoshi Hori
      立木文彦 Fumihiko Tachiki
      小山茉美 Mami Koyama
      井上喜久子 Kikuko Inoue
      木下浩之 Hiroyuki Kinosha
      加藤精三 Seiz? Kat?
      茶风林 Chaf?rin
      井上和彦 Kazuhiko Inoue
      大塚明夫 Akio ?tsuka
      古川登志夫 Toshio Furukawa
      高田裕司
      置鲇龙太郎 Ry?tar? Okiayu
      鹤广美 Hiromi Tsuru
      汤屋敦子 Atsuko Yuya
      千叶一伸 Isshin Chiba
      小清水亚美 Ami Koshimizu
      神奈延年 Nobutoshi Canna
      西村朋纮 Tomohiro Nishimura
      水树奈奈 Nana Mizuki
      梅津秀行 Hideyuki Umezu
      喜多村英梨 Eri Kitamura
      大塚瑞惠 Mizuki Otsuka
      柳泽荣治
      内藤大湖 Daigo
      干本雄之 Y?ji Mikimoto


◎标  签 柯南 | 剧场版 | 日本 | 动画 | 动漫 | 推理 | 2009 | 侦探

◎简  介  

  一年一度的七夕即将到来,东京、神奈、静冈、长野等地却接连发生六起连环杀人案,被害者身边皆留下麻将牌中的七筒和奇怪暗示。由于作案范围过大,各地警署探员纷纷聚到东京警署的专案组共同研究案情,毛利小五郎也被邀请参加,柯南则偷偷听取了会议的内容。会后,柯南无意中听到群马县警部山村操哼唱的童谣,继而发现有黑衣组织的成员混进警察中间。在一次围捕行动中,柯南遇到假扮人质的Vermouth,得知近期一连串的杀人案件与存有组织内部人员资料的记忆卡有关。与此同时,潜入警察内部的间谍偷偷盗取工藤新一和柯南的指纹,新一的身份眼看被拆穿,巨大的危险正向他和身边的人急速袭来……

◎获奖情况  

  第33届日本电影学院奖(2010)
  最佳动画片(提名) 山本泰一郎


Video
ID                                       : 1
Format                                   : AVC
Format/Info                              : Advanced Video Codec

Format settings                          : CABAC / 4 Ref Frames
Format settings, CABAC                   : Yes
Format settings, ReFrames                : 4 frames
Codec ID                                 : V_MPEG4/ISO/AVC
Duration                                 : 1 h 51 min
Bit rate                                 : 8 003 kb/s
Width                                    : 1 920 pixels
Height                                   : 1 080 pixels
Display aspect ratio                     : 16:9
Frame rate mode                          : Constant
Frame rate                               : 23.976 (24000/1001) FPS
Color space                              : YUV
Chroma subsampling                       : 4:2:0
Bit depth                                : 8 bits
Scan type                                : Progressive
Bits/(Pixel*Frame)                       : 0.161
Stream size                              : 6.08 GiB (93%)
Writing library                          : x264 core 104 r1688 0b36c6d
Encoding settings                        : cabac=1 / ref=4 / deblock=1:1:1 / analyse=0x3:0x133 / me=umh / subme=7 / psy=1 / psy_rd=0.40:0.00 / mixed_ref=1 / me_range=16 / chroma_me=1 / trellis=1 / 8x8dct=1 / cqm=0 / deadzone=21,11 / fast_pskip=0 / chroma_qp_offset=-2 / threads=12 / sliced_threads=0 / nr=0 / decimate=1 / interlaced=0 / constrained_intra=0 / bframes=5 / b_pyramid=2 / b_adapt=1 / b_bias=0 / direct=1 / weightb=1 / open_gop=0 / weightp=2 / keyint=250 / keyint_min=23 / scenecut=40 / intra_refresh=0 / rc_lookahead=40 / rc=2pass / mbtree=1 / bitrate=8003 / ratetol=1.0 / qcomp=0.60 / qpmin=10 / qpmax=51 / qpstep=4 / cplxblur=20.0 / qblur=0.5 / ip_ratio=1.40 / aq=1:0.60
Language                                 : English
Default                                  : Yes
Forced                                   : No

Audio
ID                                       : 2
Format                                   : AC-3
Format/Info                              : Audio Coding 3
Commercial name                          : Dolby Digital
Muxing mode                              : Header stripping
Codec ID                                 : A_AC3
Duration                                 : 1 h 51 min
Bit rate mode                            : Constant
Bit rate                                 : 448 kb/s
Channel(s)                               : 6 channels
Channel layout                           : L R C LFE Ls Rs
Sampling rate                            : 48.0 kHz
Frame rate                               : 31.250 FPS (1536 SPF)
Bit depth                                : 16 bits
Compression mode                         : Lossy
Stream size                              : 356 MiB (5%)
Language                                 : Japanese
Service kind                             : Complete Main
Default                                  : Yes
Forced                                   : No

Text
ID                                       : 3
Format                                   : UTF-8
Codec ID                                 : S_TEXT/UTF8
Codec ID/Info                            : UTF-8 Plain Text
Language                                 : English
Default                                  : Yes
Forced                                   : No



                                                                                                                                                                                                        
                                                                                                                                                                                                                                                                                                                                                                                                                                                                                                                                                                                                                                                                                                                                                                                                                                                        
a261f6b8a8039f698caae71e6b7291b0.torrent (33.29 KB)

回复

使用道具 举报

您需要登录后才可以回帖 登录 | 立即注册

本版积分规则

5n电影网  |网站地图

本网站所有资源来自网络,如无意中侵犯了您的权益,请发邮件至 [email protected],立即清除相关链接

GMT+8, 2019-6-26 00:25 , Processed in 0.075232 second(s), 31 queries .

Powered by Discuz! X3.2

© 2001-2013 Comsenz Inc.

快速回复 返回顶部 返回列表