请选择 进入手机版 | 继续访问电脑版

5n电影网

 找回密码
 立即注册

我的左脚 My.Left.Foot.1989.1080p.BluRay.x264-HD4U 6.55GB

[复制链接]
电影bt 发表于 2019-6-14 22:51:27 | 显示全部楼层 |阅读模式
我的左脚 My.Left.Foot.1989.1080p.BluRay.x264-HD4U 6.55GB




◎译  名 我的左脚 / My Left Foot: The Story of Christy Brown / 无悔今生
◎片  名 My Left Foot
◎年  代 1989
◎产  地 爱尔兰 / 英国
◎类  别 剧情 / 传记
◎语  言 英语
◎上映日期 1989-09-13
◎IMDb评分  7.9/10 from 61060 users
◎片  长 103 分钟
◎导  演 Jim Sheridan
◎编  剧 Shane Connaughton / Jim Sheridan / Christy Brown
◎主  演 Daniel Day-Lewis
      Brenda Fricker
      Alison Whelan
      Kirsten Sheridan
      Fiona Shaw


◎标  签 励志 | 英国 | 传记 | 爱尔兰 | DanielDayLewis | 丹尼尔戴刘易斯 | 英国电影 | 1989

◎简  介  

  本片改编自已故爱尔兰天才作家兼画家克里斯蒂?布朗的自传体小说。
基提(丹尼尔?戴-刘易斯 Daniel Day-Lewis 饰)天生大脑麻痹身体残疾,只有左脚能灵活如常人。他没有生活自理能力,为家里带来了很大的负担,幼时总是遭到周围孩子的嘲弄,父亲险些放弃他,而母亲(布兰达?弗里克 Brenda Fricker 饰)却一直对他悉心照顾,不离不弃。基提心理苦闷却不能用语言来表达,试图用左脚写字作画,渐渐地凭借毅力和智慧,基提越来越得到认可。母亲悄悄地为基提买了轮椅,之后他又得到了艾莲医生的免费救助。在艾莲的锻炼引导下,基提的身体开始有了好转。此时基提已经爱上了艾莲。某日艾莲将基提的画推荐到了朋友的画廊展出。结束后基提向艾莲表达爱意,却被她拒绝......

◎获奖情况  

  第62届奥斯卡金像奖(1990)
  最佳影片(提名) Noel Pearson
  最佳导演(提名) 吉姆·谢里丹
  最佳男主角 丹尼尔·戴-刘易斯
  最佳女配角 布兰达·弗里克
  最佳改编剧本(提名) 吉姆·谢里丹 / 沙恩·康诺顿


Video
ID                                       : 1
Format                                   : AVC
Format/Info                              : Advanced Video Codec

Format settings                          : CABAC / 4 Ref Frames
Format settings, CABAC                   : Yes
Format settings, ReFrames                : 4 frames
Codec ID                                 : V_MPEG4/ISO/AVC
Duration                                 : 1 h 43 min
Bit rate                                 : 8 471 kb/s
Width                                    : 1 920 pixels
Height                                   : 1 080 pixels
Display aspect ratio                     : 16:9
Frame rate mode                          : Constant
Frame rate                               : 23.976 (24000/1001) FPS
Color space                              : YUV
Chroma subsampling                       : 4:2:0
Bit depth                                : 8 bits
Scan type                                : Progressive
Bits/(Pixel*Frame)                       : 0.170
Stream size                              : 5.96 GiB (91%)
Title                                    : X264
Writing library                          : x264 core 133 r2334 a3ac64b
Encoding settings                        : cabac=1 / ref=4 / deblock=1:0:0 / analyse=0x3:0x133 / me=umh / subme=7 / psy=1 / psy_rd=1.00:0.00 / mixed_ref=1 / me_range=16 / chroma_me=1 / trellis=1 / 8x8dct=1 / cqm=0 / deadzone=21,11 / fast_pskip=0 / chroma_qp_offset=-2 / threads=36 / lookahead_threads=6 / sliced_threads=0 / nr=0 / decimate=1 / interlaced=0 / bluray_compat=0 / constrained_intra=0 / bframes=3 / b_pyramid=2 / b_adapt=1 / b_bias=0 / direct=1 / weightb=1 / open_gop=0 / weightp=2 / keyint=250 / keyint_min=23 / scenecut=40 / intra_refresh=0 / rc_lookahead=40 / rc=2pass / mbtree=1 / bitrate=8471 / ratetol=1.0 / qcomp=0.60 / qpmin=0 / qpmax=69 / qpstep=4 / cplxblur=20.0 / qblur=0.5 / ip_ratio=1.40 / aq=1:1.00
Language                                 : English
Default                                  : Yes
Forced                                   : No

Audio
ID                                       : 2
Format                                   : AC-3
Format/Info                              : Audio Coding 3
Commercial name                          : Dolby Digital
Codec ID                                 : A_AC3
Duration                                 : 1 h 43 min
Bit rate mode                            : Constant
Bit rate                                 : 640 kb/s
Channel(s)                               : 2 channels
Channel layout                           : L R
Sampling rate                            : 48.0 kHz
Frame rate                               : 31.250 FPS (1536 SPF)
Bit depth                                : 16 bits
Compression mode                         : Lossy
Stream size                              : 472 MiB (7%)
Title                                    : DTS
Language                                 : English
Service kind                             : Complete Main
Default                                  : Yes
Forced                                   : No

Text
ID                                       : 3
Format                                   : UTF-8
Codec ID                                 : S_TEXT/UTF8
Codec ID/Info                            : UTF-8 Plain Text
Title                                    : English
Language                                 : English
Default                                  : No
Forced                                   : No

Menu
00:00:00.000                             : en:00:00:00.000
00:14:34.123                             : en:00:14:34.123
00:27:40.659                             : en:00:27:40.659
00:37:34.127                             : en:00:37:34.127
00:51:22.371                             : en:00:51:22.371
01:04:31.076                             : en:01:04:31.076
01:14:08.069                             : en:01:14:08.069
01:29:32.200                             : en:01:29:32.200



                                                                                                                                                                                                        
                                                                                                                                                                                                                                                                                                                                                                                                                                                                                                                                                                                                                                                                                                                                                                                                                                                        
33fb162151ff2eab38ef086491ab28dc.torrent (33.27 KB)

回复

使用道具 举报

您需要登录后才可以回帖 登录 | 立即注册

本版积分规则

5n电影网  |网站地图

本网站所有资源来自网络,如无意中侵犯了您的权益,请发邮件至 [email protected],立即清除相关链接

GMT+8, 2019-8-25 23:56 , Processed in 0.518741 second(s), 31 queries .

Powered by Discuz! X3.2

© 2001-2013 Comsenz Inc.

快速回复 返回顶部 返回列表