请选择 进入手机版 | 继续访问电脑版

5n电影网

 找回密码
 立即注册

赌棍/赌徒 The.Gambler.2014.1080p.BluRay.x264-SPARKS 7.94GB

[复制链接]
bt电影 发表于 2019-6-14 22:51:27 | 显示全部楼层 |阅读模式
赌棍/赌徒 The.Gambler.2014.1080p.BluRay.x264-SPARKS 7.94GB




◎译  名 赌棍 / 赌徒
◎片  名 The Gambler
◎年  代 2014
◎产  地 美国
◎类  别 剧情
◎语  言 英语
◎上映日期 2014-12-25(美国)
◎片  长 111分钟
◎导  演 鲁伯特·瓦耶特 Rupert Wyatt
◎编  剧 威廉·莫纳汉 William Monahan
◎主  演 马克·沃尔伯格 Mark Wahlberg
      Griffin Cleveland
      杰西卡·兰格 Jessica Lange
      Omar Leyva
      Anthony Kelley
      斯蒂芬·朴 Steve Park (I)
      艾莫里·科恩 Emory Cohen
      布丽·拉尔森 Brie Larson
      乔治·肯尼迪 George Kennedy
      Chil Kong
      迈克尔·威廉姆斯 Michael K. Williams
      达旺·麦克唐纳 Da'Vone McDonald
      阿明·约瑟夫 Amin Joseph
      约翰·古德曼 John Goodman


◎标  签 美国 | 剧情 | 心理 | 赌片 | 2014 | 犯罪 | 人性 | 生活

◎简  介  

  《赌徒》根据1974年的同名电影改编而成,沃尔伯格饰演的吉姆·本内特(Jim Bennett)既是大学英语文学教授,又是一个大手笔的赌徒。他让学生打假球,使自己在赌局中牟利。随着赌瘾日渐加深,他的生活陷入万劫不复之中。由于债台高筑,他不得不已自己的生命为代价,向一位高利贷大佬弗兰克借债。
Video
ID                                       : 1
Format                                   : AVC
Format/Info                              : Advanced Video Codec
Format settings, CABAC                   : Yes
Format settings, ReFrames                : 5 frames
Codec ID                                 : V_MPEG4/ISO/AVC
Duration                                 : 1 h 50 min
Bit rate                                 : 8 735 kb/s
Width                                    : 1 920 pixels
Height                                   : 800 pixels
Display aspect ratio                     : 2.40:1
Frame rate mode                          : Constant
Frame rate                               : 23.976 FPS
Color space                              : YUV
Chroma subsampling                       : 4:2:0
Bit depth                                : 8 bits
Scan type                                : Progressive
Bits/(Pixel*Frame)                       : 0.237
Stream size                              : 6.61 GiB (83%)
Writing library                          : x264 core 144 r2525 40bb568
Encoding settings                        : cabac=1 / ref=5 / deblock=1:0:0 / analyse=0x3:0x133 / me=umh / subme=7 / psy=1 / psy_rd=1.00:0.00 / mixed_ref=1 / me_range=16 / chroma_me=1 / trellis=1 / 8x8dct=1 / cqm=0 / deadzone=21,11 / fast_pskip=0 / chroma_qp_offset=-2 / threads=60 / lookahead_threads=6 / sliced_threads=0 / nr=0 / decimate=1 / interlaced=0 / bluray_compat=0 / constrained_intra=0 / bframes=3 / b_pyramid=2 / b_adapt=1 / b_bias=0 / direct=1 / weightb=1 / open_gop=0 / weightp=2 / keyint=250 / keyint_min=23 / scenecut=40 / intra_refresh=0 / rc_lookahead=40 / rc=2pass / mbtree=1 / bitrate=8735 / ratetol=1.0 / qcomp=0.60 / qpmin=0 / qpmax=69 / qpstep=4 / cplxblur=20.0 / qblur=0.5 / ip_ratio=1.40 / aq=1:1.00
Language                                 : English
Default                                  : Yes
Forced                                   : No

Audio
ID                                       : 2
Format                                   : DTS
Format/Info                              : Digital Theater Systems
Mode                                     : 16
Format settings, Endianness              : Big
Codec ID                                 : A_DTS
Duration                                 : 1 h 50 min
Bit rate mode                            : Constant
Bit rate                                 : 1 509 kb/s
Channel(s)                               : 6 channels
Channel positions                        : Front: L C R, Side: L R, LFE
Sampling rate                            : 48.0 kHz
Frame rate                               : 93.750 FPS (512 spf)
Bit depth                                : 24 bits
Compression mode                         : Lossy
Stream size                              : 1.17 GiB (15%)
Language                                 : English
Default                                  : Yes
Forced                                   : No

Menu
00:00:00.000                             : en:00:00:00.000
00:08:21.376                             : en:00:08:21.376
00:16:46.422                             : en:00:16:46.422
00:25:22.020                             : en:00:25:22.020
00:29:16.254                             : en:00:29:16.254
00:34:09.422                             : en:00:34:09.422
00:45:08.456                             : en:00:45:08.456
00:51:00.516                             : en:00:51:00.516
00:59:08.336                             : en:00:59:08.336
01:06:22.729                             : en:01:06:22.729
01:12:39.230                             : en:01:12:39.230
01:21:58.664                             : en:01:21:58.664
01:24:17.094                             : en:01:24:17.094
01:31:11.758                             : en:01:31:11.758
01:35:35.563                             : en:01:35:35.563
01:46:04.441                             : en:01:46:04.441



                                                                                                                                                                                                        
                                                                                                                                                                                                                                                                                                                                                                                                                                                                                                                                                                                                                                                                                                                                                                                                                                                        
0069987299f21a51dce010ced5b7976e.torrent (79.92 KB)

回复

使用道具 举报

您需要登录后才可以回帖 登录 | 立即注册

本版积分规则

5n电影网  |网站地图

本网站所有资源来自网络,如无意中侵犯了您的权益,请发邮件至 [email protected],立即清除相关链接

GMT+8, 2019-9-21 16:24 , Processed in 0.074563 second(s), 31 queries .

Powered by Discuz! X3.2

© 2001-2013 Comsenz Inc.

快速回复 返回顶部 返回列表