请选择 进入手机版 | 继续访问电脑版

5n电影网

 找回密码
 立即注册

新郎不是我/伴娘先生 Made.of.Honor.2008.1080p.BluRay.x264.DD5.1-FGT 7...

[复制链接]
高清bt 发表于 3 天前 | 显示全部楼层 |阅读模式


◎译  名 新郎不是我 / 伴娘先生 / 男伴娘
◎片  名 Made of Honor
◎年  代 2008
◎产  地 美国 / 英国
◎类  别 喜剧 / 爱情
◎语  言 英语
◎上映日期 2008-05-02(美国)
◎片  长 101分钟
◎导  演 保罗·韦兰德 Paul Weiland
◎编  剧 亚当·希泰凯尔 Adam Sztykiel / 德博拉·卡普兰 Deborah Kaplan / 哈里·艾尔方特 Harry Elfont
◎主  演 帕特里克·德姆西 Patrick Dempsey
      米歇尔·莫娜汉 Michelle Monaghan
      凯文·麦克基德 Kevin McKidd
      卡丹·哈迪森 Kadeem Hardison
      克里斯·梅西纳 Chris Messina


◎标  签 爱情 | 喜剧 | 美国 | 美国电影 | 2008 | Patrick | 电影 | Honor

◎简  介  

  似乎得到上帝的垂青一般,汤姆·贝利(帕特里克·德姆西 Patrick Dempsey 饰)拥有令人欣羡的人生。他英俊潇洒,事业有成,生活优渥,身旁美女如云,终日游走在花丛中,并且有着一个交往长达10年之久的红颜知己汉娜(米歇尔·莫娜汉 Michelle Monaghan 饰)。对汤姆来说,汉娜是一个无关肉欲且不可或缺的必要存在,他似乎尤其享受这样诚挚的精神交流。
某天,汉娜前往苏格兰公干。在接下来的几个月里,汤姆保守孤独折磨,他意识到汉娜对自己的重要性,于是决定等她回来向其求婚。然而,汉娜在苏格兰期间邂逅了一位富有的男人,并决定婚礼当天请汤姆担任伴郎。面对这样的局面,汤姆该如何是好……
Video
ID                                       : 1
Format                                   : AVC
Format settings, CABAC                   : Yes
Format settings, ReFrames                : 5 frames
Codec ID                                 : V_MPEG4/ISO/AVC
Duration                                 : 1h 41mn
Bit rate mode                            : Variable
Bit rate                                 : 10.3 Mbps
Maximum bit rate                         : 40.0 Mbps
Width                                    : 1 920 pixels
Height                                   : 800 pixels
Display aspect ratio                     : 2.40:1
Frame rate mode                          : Constant
Frame rate                               : 23.976 (24000/1001) fps
Color space                              : YUV
Chroma subsampling                       : 4:2:0
Bit depth                                : 8 bits
Scan type                                : Progressive
Bits/(Pixel*Frame)                       : 0.280
Stream size                              : 7.17 GiB (92%)
Writing library                          : x264 core 58 svn-745
Encoding settings                        : cabac=1 / ref=5 / deblock=1:0:0 / analyse=0x3:0x133 / me=umh / subme=7 / brdo=1 / mixed_ref=1 / me_range=16 / chroma_me=1 / trellis=1 / 8x8dct=1 / cqm=0 / deadzone=21,11 / chroma_qp_offset=0 / threads=6 / nr=0 / decimate=1 / mbaff=0 / bframes=3 / b_pyramid=1 / b_adapt=1 / b_bias=0 / direct=1 / wpredb=1 / bime=1 / keyint=250 / keyint_min=25 / scenecut=20(pre) / rc=2pass / bitrate=10323 / ratetol=1.0 / rceq=\'blurCplx^(1-qComp)\' / qcomp=0.60 / qpmin=10 / qpmax=51 / qpstep=4 / cplxblur=20.0 / qblur=0.5 / ip_ratio=1.40 / pb_ratio=1.3
Default                                  : Yes
Forced                                   : No

Audio
ID                                       : 2
Format                                   : AC-3
Format/Info                              : Audio Coding 3
Mode extension                           : CM (complete main)
Format settings, Endianness              : Big
Codec ID                                 : A_AC3
Duration                                 : 1h 41mn
Bit rate mode                            : Constant
Bit rate                                 : 640 Kbps
Channel(s)                               : 6 channels
Channel positions                        : Front: L C R, Side: L R, LFE
Sampling rate                            : 48.0 KHz
Frame rate                               : 31.250 fps (1536 spf)
Compression mode                         : Lossy
Stream size                              : 465 MiB (6%)
Language                                 : English
Default                                  : No
Forced                                   : No



                                                                                                                                                                                                        
                                                                                                                                                                                                                                                                                                                                                                                                                                                                                                                                                                                                                                                                                                                                                                                                                                                        
6c25b64fb5cb0f06e15d65e66bb33a62.torrent (78.39 KB)

回复

使用道具 举报

您需要登录后才可以回帖 登录 | 立即注册

本版积分规则

5n电影网  |网站地图

本网站所有资源来自网络,如无意中侵犯了您的权益,请发邮件至 [email protected],立即清除相关链接

GMT+8, 2019-6-17 00:27 , Processed in 0.069013 second(s), 31 queries .

Powered by Discuz! X3.2

© 2001-2013 Comsenz Inc.

快速回复 返回顶部 返回列表