请选择 进入手机版 | 继续访问电脑版

5n电影网

 找回密码
 立即注册

桃色追捕令/惊唇劫 Kiss.the.Girls.1997.1080p.BluRay.X264-AMIABLE 7.94GB

[复制链接]
高清电影 发表于 2019-6-14 22:51:27 | 显示全部楼层 |阅读模式


◎译  名 桃色追捕令 / 惊唇劫 / 红唇劫
◎片  名 Kiss the Girls
◎年  代 1997
◎产  地 美国
◎类  别 剧情 / 悬疑 / 惊悚 / 犯罪
◎语  言 英语 / 汉语普通话
◎上映日期 1997-11-13
◎片  长 115 分钟
◎导  演 加里·弗莱德 Gary Fleder
◎编  剧 戴维·克拉斯 / 詹姆斯·帕特森  James Patterson
◎主  演 摩根·弗里曼 Morgan Freeman
      艾什莉·贾德 Ashley Judd
      加利·艾尔维斯 Cary Elwes
      亚历克斯·麦克阿瑟 Alex McArthur
      托尼·戈德温 Tony Goldwyn


◎标  签 悬疑 | 犯罪 | 美国 | MorganFreeman | 惊悚 | 美国电影 | 1997 | Ashley_Judd

◎简  介  

  华盛顿警官亚历克斯·克洛斯(摩根·弗里曼 Morgan Freeman饰)是警方的一名心理咨询专家。他突然接到在北卡罗来纳州达勒姆小镇上学的侄女失踪的消息。为了找到侄女,亚历克斯决定一探究竟。然而当他到达当地警察局后,亚历克斯发现这里已经连续失踪了多名少女,自己的侄女只是受害者之一,她们无一例外的都是既聪明又漂亮的优秀女孩。死里逃生的女医生凯特·麦克蒂尔南(艾什莉·贾德 Ashley Judd饰)是唯一侥幸逃脱的女孩,她只记得凶犯是一个头戴面具自称“卡萨诺瓦”的变态杀人狂。凯特为亚历克斯提供了许多有价值的线索,然而狡猾的“卡萨诺瓦”却始终没有现身仍逍遥法外。一场漫长而艰辛的追捕开始了。
本片根据美国知名畅销小说家詹姆斯·帕特森的同名小说改编而成。
Video
ID                                       : 1
Format                                   : AVC
Format/Info                              : Advanced Video Codec
Format settings, CABAC                   : Yes
Format settings, ReFrames                : 5 frames
Codec ID                                 : V_MPEG4/ISO/AVC
Duration                                 : 1 h 55 min
Bit rate                                 : 8 328 kb/s
Width                                    : 1 920 pixels
Height                                   : 824 pixels
Display aspect ratio                     : 2.35:1
Frame rate mode                          : Constant
Frame rate                               : 23.976 (24000/1001) FPS
Color space                              : YUV
Chroma subsampling                       : 4:2:0
Bit depth                                : 8 bits
Scan type                                : Progressive
Bits/(Pixel*Frame)                       : 0.220
Stream size                              : 6.57 GiB (83%)
Writing library                          : x264 core 138 r2358 9e941d1
Encoding settings                        : cabac=1 / ref=5 / deblock=1:-3:-3 / analyse=0x3:0x113 / me=umh / subme=8 / psy=1 / psy_rd=1.00:0.00 / mixed_ref=1 / me_range=16 / chroma_me=1 / trellis=1 / 8x8dct=1 / cqm=0 / deadzone=21,11 / fast_pskip=1 / chroma_qp_offset=-2 / threads=18 / lookahead_threads=3 / sliced_threads=0 / nr=0 / decimate=1 / interlaced=0 / bluray_compat=0 / constrained_intra=0 / bframes=3 / b_pyramid=2 / b_adapt=2 / b_bias=0 / direct=3 / weightb=1 / open_gop=0 / weightp=2 / keyint=240 / keyint_min=24 / scenecut=40 / intra_refresh=0 / rc_lookahead=50 / rc=2pass / mbtree=1 / bitrate=8328 / ratetol=1.0 / qcomp=0.60 / qpmin=0 / qpmax=69 / qpstep=4 / cplxblur=20.0 / qblur=0.5 / ip_ratio=1.40 / aq=1:1.00
Language                                 : English
Default                                  : Yes
Forced                                   : No

Audio
ID                                       : 2
Format                                   : DTS
Format/Info                              : Digital Theater Systems
Mode                                     : 16
Format settings, Endianness              : Big
Codec ID                                 : A_DTS
Duration                                 : 1 h 55 min
Bit rate mode                            : Constant
Bit rate                                 : 1 509 kb/s
Channel(s)                               : 6 channels
Channel positions                        : Front: L C R, Side: L R, LFE
Sampling rate                            : 48.0 kHz
Frame rate                               : 93.750 FPS (512 spf)
Bit depth                                : 24 bits
Compression mode                         : Lossy
Stream size                              : 1.22 GiB (15%)
Language                                 : English
Default                                  : Yes
Forced                                   : No

Text #1
ID                                       : 3
Format                                   : UTF-8
Codec ID                                 : S_TEXT/UTF8
Codec ID/Info                            : UTF-8 Plain Text
Language                                 : English
Default                                  : No
Forced                                   : No

Text #2
ID                                       : 4
Format                                   : UTF-8
Codec ID                                 : S_TEXT/UTF8
Codec ID/Info                            : UTF-8 Plain Text
Title                                    : SDH
Language                                 : English
Default                                  : No
Forced                                   : No

Menu
00:00:00.000                             : en:00:00:00.000
00:02:31.151                             : en:00:02:31.151
00:07:45.715                             : en:00:07:45.715
00:10:00.225                             : en:00:10:00.225
00:11:13.756                             : en:00:11:13.756
00:19:16.530                             : en:00:19:16.530
00:23:37.875                             : en:00:23:37.875
00:24:59.873                             : en:00:24:59.873
00:29:10.207                             : en:00:29:10.207
00:32:42.752                             : en:00:32:42.752
00:36:04.329                             : en:00:36:04.329
00:38:06.367                             : en:00:38:06.367
00:40:59.957                             : en:00:40:59.957
00:43:34.320                             : en:00:43:34.320
00:48:11.097                             : en:00:48:11.097
00:53:24.827                             : en:00:53:24.827
00:55:58.438                             : en:00:55:58.438
00:59:20.766                             : en:00:59:20.766
01:02:31.706                             : en:01:02:31.706
01:07:51.651                             : en:01:07:51.651
01:11:04.635                             : en:01:11:04.635
01:15:28.858                             : en:01:15:28.858
01:18:48.891                             : en:01:18:48.891
01:25:22.826                             : en:01:25:22.826
01:36:29.867                             : en:01:36:29.867
01:39:23.791                             : en:01:39:23.791



                                                                                                                                                                                                        
                                                                                                                                                                                                                                                                                                                                                                                                                                                                                                                                                                                                                                                                                                                                                                                                                                                        
21550f4085b692507023e7c822e0ba28.torrent (79.96 KB)

回复

使用道具 举报

您需要登录后才可以回帖 登录 | 立即注册

本版积分规则

5n电影网  |网站地图

本网站所有资源来自网络,如无意中侵犯了您的权益,请发邮件至 [email protected],立即清除相关链接

GMT+8, 2019-9-21 15:35 , Processed in 0.081490 second(s), 31 queries .

Powered by Discuz! X3.2

© 2001-2013 Comsenz Inc.

快速回复 返回顶部 返回列表