请选择 进入手机版 | 继续访问电脑版

5n电影网

 找回密码
 立即注册

寻觅之境 Taking.Earth.2017.1080p.BluRay.x264.DTS-FGT 8.52GB

[复制链接]
电影首发 发表于 前天 22:51 | 显示全部楼层 |阅读模式
寻觅之境 Taking.Earth.2017.1080p.BluRay.x264.DTS-FGT 8.52GB




◎译  名 寻觅之境 / Finding Cam / 英雄联盟
◎片  名 Taking Earth
◎年  代 2016
◎产  地 南非
◎类  别 科幻
◎语  言 英语
◎片  长 100分钟
◎导  演 Grant Humphreys
◎编  剧 Michael Harrison / Grant Humphreys / Grant Knight
◎主  演 Ronan Quarmby
      Brad Richards
      Barbara Harrison
      Marco Torlage
      Richard Sorensen


◎标  签 科幻 | 南非 | 烂片 | 垃圾中的战斗机 | 原来发现真的可以0分差评…………真是可以一直拉到结尾的电影…… | 烂 | 我居然看了,怎么办 | 2016

◎简  介  

  An unexplainable event that has thrust the world into chaos brings two survivors together as a portion of the worlds population presumably infected by a strange outbreak, hunt them. These Infected Ones (IO’s) seem motivated by an obsession to rein chaos with a need for tasting blood. The two survivors; David (Ronan Quarmby) and a teenager named Cameron (Marco Torlage) form a bond as they try to find their lost loved ones, but the young man has a secret about the outbreak – all is not as it seems. A race from another world are orchestrating this attack on Earth as they hide in the skies, searching for the one out of seven billion people… searching for Cameron. Controlling the IO’s who are gripped in a bicameral state, time is running out as the ‘Visitors’ patience is waning and a greater threat faces our world if the boy is not found. David must help Cameron find his mom, Ellen (Barbara Harrison) and do what they can to stop the alien attack.
Video
ID                                       : 1
Format                                   : AVC
Format/Info                              : Advanced Video Codec
Format settings                          : CABAC / 4 Ref Frames
Format settings, CABAC                   : Yes
Format settings, ReFrames                : 4 frames
Codec ID                                 : V_MPEG4/ISO/AVC
Duration                                 : 1 h 39 min
Bit rate                                 : 11.5 Mb/s
Width                                    : 1 920 pixels
Height                                   : 804 pixels
Display aspect ratio                     : 2.40:1
Frame rate mode                          : Constant
Frame rate                               : 24.000 FPS
Color space                              : YUV
Chroma subsampling                       : 4:2:0
Bit depth                                : 8 bits
Scan type                                : Progressive
Bits/(Pixel*Frame)                       : 0.310
Stream size                              : 7.98 GiB (94%)
Title                                    : Taking.Earth.2017.1080p.BluRay.x264.DTS-FGT
Writing library                          : x264 core 148 r2795M aaa9aa8
Encoding settings                        : cabac=1 / ref=4 / deblock=1:-2:-2 / analyse=0x3:0x113 / me=umh / subme=9 / psy=1 / psy_rd=1.00:0.15 / mixed_ref=1 / me_range=16 / chroma_me=1 / trellis=2 / 8x8dct=1 / cqm=0 / deadzone=21,11 / fast_pskip=1 / chroma_qp_offset=-3 / threads=24 / lookahead_threads=3 / sliced_threads=0 / nr=0 / decimate=1 / interlaced=0 / bluray_compat=0 / constrained_intra=0 / bframes=3 / b_pyramid=2 / b_adapt=1 / b_bias=0 / direct=3 / weightb=1 / open_gop=0 / weightp=2 / keyint=250 / keyint_min=25 / scenecut=40 / intra_refresh=0 / rc_lookahead=50 / rc=2pass / mbtree=1 / bitrate=11500 / ratetol=1.0 / qcomp=0.60 / qpmin=0 / qpmax=69 / qpstep=4 / cplxblur=20.0 / qblur=0.5 / vbv_maxrate=31250 / vbv_bufsize=31250 / nal_hrd=none / filler=0 / ip_ratio=1.40 / aq=1:1.00
Language                                 : English
Default                                  : Yes
Forced                                   : No

Audio
ID                                       : 2
Format                                   : DTS
Format/Info                              : Digital Theater Systems
Codec ID                                 : A_DTS
Duration                                 : 1 h 39 min
Bit rate mode                            : Constant
Bit rate                                 : 768 kb/s
Channel(s)                               : 6 channels
Channel layout                           : C L R Ls Rs LFE
Sampling rate                            : 48.0 kHz
Frame rate                               : 93.750 FPS (512 SPF)
Bit depth                                : 16 bits
Compression mode                         : Lossy
Stream size                              : 549 MiB (6%)
Title                                    : Taking.Earth.2017.1080p.BluRay.x264.DTS-FGT
Language                                 : English
Default                                  : No
Forced                                   : No

Menu
00:00:00.000                             : en:Chapter 01
00:01:39.250                             : en:Chapter 02
00:09:34.291                             : en:Chapter 03
00:15:43.791                             : en:Chapter 04
00:26:40.666                             : en:Chapter 05
00:38:21.916                             : en:Chapter 06
00:50:07.625                             : en:Chapter 07
01:02:27.458                             : en:Chapter 08
01:13:43.208                             : en:Chapter 09
01:20:36.500                             : en:Chapter 10
01:26:21.000                             : en:Chapter 11
01:35:17.833                             : en:Chapter 12



                                                                                                                                                                                                        
                                                                                                                                                                                                                                                                                                                                                                                                                                                                                                                                                                                                                                                                                                                                                                                                                                                        
3ff372f4247d13720929473f5bb94bfb.torrent (43.12 KB)

回复

使用道具 举报

您需要登录后才可以回帖 登录 | 立即注册

本版积分规则

5n电影网  |网站地图

本网站所有资源来自网络,如无意中侵犯了您的权益,请发邮件至 [email protected],立即清除相关链接

GMT+8, 2019-6-16 23:43 , Processed in 0.069591 second(s), 31 queries .

Powered by Discuz! X3.2

© 2001-2013 Comsenz Inc.

快速回复 返回顶部 返回列表