请选择 进入手机版 | 继续访问电脑版

5n电影网

 找回密码
 立即注册

五尺天涯/五英尺的距离 Five.Feet.Apart.2019.1080p.BluRay.x264.DTS-HD...

[复制链接]
高清电影 发表于 2019-6-14 22:51:27 | 显示全部楼层 |阅读模式
五尺天涯/五英尺的距离 Five.Feet.Apart.2019.1080p.BluRay.x264.DTS-HD.MA.5.1-FGT 10.21GB




◎译  名 五尺天涯 / 五英尺的距离 / 我的五步男朋友(港) / 爱上触不到的你(台) / 相隔五英尺
◎片  名 Five Feet Apart
◎年  代 2019
◎产  地 美国
◎类  别 剧情 / 爱情
◎语  言 英语
◎上映日期 2019-03-15(美国)
◎片  长 116分钟
◎导  演 贾斯汀·贝尔杜尼 Justin Baldoni
◎编  剧 米琪·多特里 Mikki Daughtry / 托拜厄斯·伊康尼斯 Tobias Iaconis
◎主  演 海莉·露·理查森 Haley Lu Richardson
      科尔·斯普罗斯 Cole Sprouse
      克莱尔·弗兰妮 Claire Forlani
      莫伊塞斯·阿里亚斯 Moises Arias
      帕敏德·纳格拉 Parminder Nagra
      艾米丽·芭尔多尼 Emily Baldoni
      加里·维克斯 Gary Weeks
      金博利·赫伯特·格雷戈里 Kimberly Hebert Gregory
      吉姆·格里森 Jim Gleason


◎标  签 爱情 | 青春 | 生命 | 美国 | 2019 | 剧情 | 疾病 | 恋爱

◎简  介  

  17岁女孩Stella和男孩Will身患囊肿性纤维化疾病,他们在医院治疗的过程中相识相爱,两人必须抓紧每分每秒活着的时间。他们的爱情能够战胜疾病和死亡吗?
Video
ID                                       : 1
Format                                   : AVC
Format/Info                              : Advanced Video Codec
Format settings                          : CABAC / 5 Ref Frames
Format settings, CABAC                   : Yes
Format settings, ReFrames                : 5 frames
Codec ID                                 : V_MPEG4/ISO/AVC
Duration                                 : 1 h 56 min
Bit rate                                 : 9 260 kb/s
Width                                    : 1 920 pixels
Height                                   : 800 pixels
Display aspect ratio                     : 2.40:1
Frame rate mode                          : Constant
Frame rate                               : 23.976 (24000/1001) FPS
Color space                              : YUV
Chroma subsampling                       : 4:2:0
Bit depth                                : 8 bits
Scan type                                : Progressive
Bits/(Pixel*Frame)                       : 0.251
Stream size                              : 7.52 GiB (74%)
Title                                    : Five.Feet.Apart.2019.1080p.BluRay.x264.DTS-HD.MA.5.1-FGT
Writing library                          : x264 core 157 r2970 5493be8
Encoding settings                        : cabac=1 / ref=5 / deblock=1:-3:-3 / analyse=0x3:0x113 / me=umh / subme=8 / psy=1 / psy_rd=1.00:0.00 / mixed_ref=1 / me_range=16 / chroma_me=1 / trellis=1 / 8x8dct=1 / cqm=0 / deadzone=21,11 / fast_pskip=1 / chroma_qp_offset=-2 / threads=25 / lookahead_threads=4 / sliced_threads=0 / nr=0 / decimate=1 / interlaced=0 / bluray_compat=0 / constrained_intra=0 / bframes=3 / b_pyramid=2 / b_adapt=1 / b_bias=0 / direct=3 / weightb=1 / open_gop=0 / weightp=2 / keyint=250 / keyint_min=23 / scenecut=40 / intra_refresh=0 / rc_lookahead=50 / rc=2pass / mbtree=1 / bitrate=9260 / ratetol=1.0 / qcomp=0.60 / qpmin=0 / qpmax=69 / qpstep=4 / cplxblur=20.0 / qblur=0.5 / ip_ratio=1.40 / aq=1:1.00
Language                                 : English
Default                                  : Yes
Forced                                   : No

Audio
ID                                       : 2
Format                                   : DTS XLL
Format/Info                              : Digital Theater Systems
Commercial name                          : DTS-HD Master Audio
Codec ID                                 : A_DTS
Duration                                 : 1 h 56 min
Bit rate mode                            : Variable
Bit rate                                 : 3 279 kb/s
Channel(s)                               : 6 channels
Channel layout                           : C L R Ls Rs LFE
Sampling rate                            : 48.0 kHz
Frame rate                               : 93.750 FPS (512 SPF)
Bit depth                                : 24 bits
Compression mode                         : Lossless
Stream size                              : 2.66 GiB (26%)
Title                                    : Five.Feet.Apart.2019.1080p.BluRay.x264.DTS-HD.MA.5.1-FGT
Language                                 : English
Default                                  : Yes
Forced                                   : No

Text #1
ID                                       : 3
Format                                   : UTF-8
Codec ID                                 : S_TEXT/UTF8
Codec ID/Info                            : UTF-8 Plain Text
Duration                                 : 1 h 49 min
Bit rate                                 : 43 b/s
Count of elements                        : 1207
Stream size                              : 35.3 KiB (0%)
Title                                    : English-SRT
Language                                 : English
Default                                  : Yes
Forced                                   : No

Text #2
ID                                       : 4
Format                                   : PGS
Muxing mode                              : zlib
Codec ID                                 : S_HDMV/PGS
Codec ID/Info                            : Picture based subtitle format used on BDs/HD-DVDs
Duration                                 : 1 h 53 min
Bit rate                                 : 34.0 kb/s
Count of elements                        : 2884
Stream size                              : 27.6 MiB (0%)
Title                                    : English-PGS
Language                                 : English
Default                                  : No
Forced                                   : No

Text #3
ID                                       : 5
Format                                   : PGS
Muxing mode                              : zlib
Codec ID                                 : S_HDMV/PGS
Codec ID/Info                            : Picture based subtitle format used on BDs/HD-DVDs
Duration                                 : 1 h 51 min
Bit rate                                 : 28.8 kb/s
Count of elements                        : 2196
Stream size                              : 23.0 MiB (0%)
Title                                    : Spanish-PGS
Language                                 : Spanish
Default                                  : No
Forced                                   : No

Text #4
ID                                       : 6
Format                                   : PGS
Muxing mode                              : zlib
Codec ID                                 : S_HDMV/PGS
Codec ID/Info                            : Picture based subtitle format used on BDs/HD-DVDs
Duration                                 : 1 h 47 min
Bit rate                                 : 1 570 b/s
Count of elements                        : 94
Stream size                              : 1.21 MiB (0%)
Title                                    : Spanish-PGS
Language                                 : Spanish
Default                                  : No
Forced                                   : No

Menu
00:00:00.000                             : en:Chapter 01
00:07:17.645                             : en:Chapter 02
00:13:52.206                             : en:Chapter 03
00:21:20.028                             : en:Chapter 04
00:29:33.062                             : en:Chapter 05
00:36:43.034                             : en:Chapter 06
00:42:55.322                             : en:Chapter 07
00:49:26.755                             : en:Chapter 08
00:58:30.215                             : en:Chapter 09
01:07:03.144                             : en:Chapter 10
01:11:37.001                             : en:Chapter 11
01:18:55.439                             : en:Chapter 12
01:28:41.899                             : en:Chapter 13
01:36:52.765                             : en:Chapter 14
01:41:37.883                             : en:Chapter 15
01:49:11.878                             : en:Chapter 16



                                                                                                                                                                                                        
                                                                                                                                                                                                                                                                                                                                                                                                                                                                                                                                                                                                                                                                                                                                                                                                                                                        
416bee51305373cfb9195ac88caa4078.torrent (51.57 KB)

回复

使用道具 举报

您需要登录后才可以回帖 登录 | 立即注册

本版积分规则

5n电影网  |网站地图

本网站所有资源来自网络,如无意中侵犯了您的权益,请发邮件至 [email protected],立即清除相关链接

GMT+8, 2019-9-16 13:01 , Processed in 0.103357 second(s), 31 queries .

Powered by Discuz! X3.2

© 2001-2013 Comsenz Inc.

快速回复 返回顶部 返回列表