请选择 进入手机版 | 继续访问电脑版

5n电影网

 找回密码
 立即注册

电光骑士/电骑士 The.Electric.Horseman.1979.1080p.BluRay.x264-USURY 12....

[复制链接]
bt电影 发表于 2019-7-20 15:37:33 | 显示全部楼层 |阅读模式


帖子完整标题:电光骑士/电骑士 The.Electric.Horseman.1979.1080p.BluRay.x264-USURY 12.03GB




◎译  名 电光骑士 / 电骑士 / 突围者
◎片  名 The Electric Horseman
◎年  代 1979
◎产  地 美国
◎类  别 剧情 / 喜剧 / 爱情 / 西部
◎语  言 英语
◎上映日期 1979-12-21
◎IMDb评分  6.3/10 from 6856 users
◎磁力链接  www.yunpanb.com
◎片  长 122 分钟
◎导  演 Sydney Pollack
◎编  剧 Robert Garland
◎主  演 Robert Redford
      Jane Fonda
      Valerie Perrine


◎标  签 美国 | Sydney_Pollack | 1979 | 美国电影 | 罗伯特.雷德福 | JaneFonda | 西德尼·波拉克 | 简·方达

◎简  介  

  The Electric Horseman is a 1979 adventure-romance film starring Robert Redford and www. aiyoutv.com Jane Fonda and directed by Sydney Pollack. The film is about a former rodeo champion who is hired by a cereal company to become its spokesperson, and then runs away on a $12 million electric-lit horse and costume he is given to promote it in Las Vegas.

◎获奖情况  

  第52届奥斯卡金像奖(1980)
  最佳音响(提名) 迈克尔·明克勒 / 莱斯·弗莱舒尔兹 / 亚瑟·皮安塔多西 / 小阿尔·奥弗顿


Video
ID                                       : 1
Format                                   : AVC
Format/Info                              : Advanced Video Codec
  
Format settings, CABAC                   : Yes
Format settings, ReFrames                : 5 frames
Codec ID                                 : V_MPEG4/ISO/AVC
Duration                                 : 2h 0mn
Bit rate                                 : 13.5 Mbps
Width                                    : 1 920 pixels
Height                                   : 816 pixels
Display aspect ratio                     : 2.35:1
Frame rate mode                          : Constant
Frame rate                               : 23.976 (24000/1001) fps
Color space                              : YUV
Chroma subsampling                       : 4:2:0
Bit depth                                : 8 bits
Scan type                                : Progressive
Bits/(Pixel*Frame)                       : 0.360
Stream size                              : 11.4 GiB (95%)
Writing library                          : x264 core 152 r2851 ba24899
Encoding settings                        : cabac=1 / ref=5 / deblock=1:-3:-3 / analyse=0x3:0x133 / me=umh / subme=9 / psy=1 / psy_rd=1.00:0.00 / mixed_ref=1 / me_range=16 / chroma_me=1 / trellis=2 / 8x8dct=1 / cqm=0 / deadzone=21,11 / fast_pskip=0 / chroma_qp_offset=-2 / threads=24 / lookahead_threads=2 / sliced_threads=0 / nr=0 / decimate=1 / interlaced=0 / bluray_compat=0 / constrained_intra=0 / bframes=3 / b_pyramid=2 / b_adapt=1 / b_bias=0 / direct=3 / weightb=1 / open_gop=0 / weightp=2 / keyint=240 / keyint_min=24 / scenecut=40 / intra_refresh=0 / rc_lookahead=50 / rc=2pass / mbtree=1 / bitrate=13511 / ratetol=1.0 / qcomp=0.60 / qpmin=0 / qpmax=69 / qpstep=4 / cplxblur=20.0 / qblur=0.5 / ip_ratio=1.40 / aq=1:1.00
Language                                 : English
Default                                  : Yes
Forced                                   : No

Audio
ID                                       : 2
Format                                   : DTS
Format/Info                              : Digital Theater Systems
Mode                                     : 16
Format settings, Endianness              : Big
Codec ID                                 : A_DTS
Duration                                 : 2h 0mn
Bit rate mode                            : Constant
Bit rate                                 : 768 Kbps
Channel(s)                               : 2 channels
Channel positions                        : Front: L R
Sampling rate                            : 48.0 KHz
Frame rate                               : 93.750 fps (512 spf)
Bit depth                                : 24 bits
Compression mode                         : Lossy
Stream size                              : 662 MiB (5%)
Language                                 : English
Default                                  : Yes
Forced                                   : No

Text
ID                                       : 3
Format                                   : UTF-8
Codec ID                                 : S_TEXT/UTF8
Codec ID/Info                            : UTF-8 Plain Text
Duration                                 : 1h 56mn
Bit rate                                 : 70 bps
Count of elements                        : 1367
Stream size                              : 60.1 KiB (0%)
Title                                    : English
Language                                 : English
Default                                  : No
Forced                                   : No

Menu
00:00:00.000                             : en:00:00:00.000
00:15:25.842                             : en:00:15:25.842
00:29:21.218                             : en:00:29:21.218
00:46:17.191                             : en:00:46:17.191
01:04:17.395                             : en:01:04:17.395
01:16:05.561                             : en:01:16:05.561
01:30:39.768                             : en:01:30:39.768
01:44:20.171                             : en:01:44:20.171
01:58:36.026                             : en:01:58:36.026



                                                                                                                                                                                                        
                                                                                                                                                                                                                                                                                                                                                                                                                                                                                                                                                                                                                                                                                                                                                                                                                                                        
52c151cb0e747546ed733678013398d1.torrent (60.74 KB)

回复

使用道具 举报

您需要登录后才可以回帖 登录 | 立即注册

本版积分规则

5n电影网  |网站地图

本网站所有资源来自网络,如无意中侵犯了您的权益,请发邮件至 [email protected],立即清除相关链接

GMT+8, 2019-9-18 06:06 , Processed in 0.086223 second(s), 31 queries .

Powered by Discuz! X3.2

© 2001-2013 Comsenz Inc.

快速回复 返回顶部 返回列表