请选择 进入手机版 | 继续访问电脑版

5n电影网

 找回密码
 立即注册

哥特风格/歌德夜谭 Gothic.1986.1080p.BluRay.x264-PSYCHD 8.75GB

[复制链接]
电影天堂 发表于 2019-7-20 15:37:33 | 显示全部楼层 |阅读模式


帖子完整标题:哥特风格/歌德夜谭 Gothic.1986.1080p.BluRay.x264-PSYCHD 8.75GB




◎译  名 哥特风格 / 歌德夜谭
◎片  名 Gothic
◎年  代 1986
◎产  地 英国
◎类  别 恐怖
◎语  言 英语
◎上映日期 1986-11-30
◎IMDb评分  5.8/10 from 6530 users
◎磁力链接  www.yunpanb.com
◎片  长 87 分钟
◎导  演 肯·罗素 Ken Russell
◎编  剧 拜伦 Lord Byron / Percy Bysshe Shelley
◎主  演 加布里埃尔·伯恩 Gabriel Byrne
      朱利安·山德斯 Julian Sands
      娜塔莎·理查德森 Natasha Richardson
      Myriam Cyr
      蒂莫西·斯波 Timothy Spall
      Alec Mango
      安德雷斯·魏斯涅夫斯基 Andreas Wisniewski
      德克斯特·弗莱彻 Dexter Fletcher
      Pascal King
      Tom Hickey
      Linda Coggin
      Kristine Landon-Smith
      Chris Chappell
      Mark Pickard
      基兰·沙阿 Kiran Shah


◎标  签 英国 | 哥特 | 传记 | gothic | 哥特文化 | 英国电影 | 恐怖 | KenRussell

◎简  介  

  哥特式的恐怖小说《弗兰肯斯坦》是如何诞生的。浪漫主义的黑暗面。

Plot Summary for
Gothic (1986)

Story of the night that Mary Shelley gave birth to the horror classic "Frankenstein." Disturbed drug induced games are played and ghost stories are told one rainy night at the mad Lord Byron's country estate. Personal horrors are revealed and the madness of the evening runs from sexual fantasy to fiercest nightmare. Mary finds herself drawn into the sick world of her lover Shelley and cousin Claire as Byron leads them all down the dark paths of their souls.


Video
ID                                       : 1
Format                                   : AVC
Format/Info                              : Advanced Video Codec
  
Format settings                          : CABAC / 4 Ref Frames
Format settings, CABAC                   : Yes
Format settings, RefFrames               : 4 frames
Codec ID                                 : V_MPEG4/ISO/AVC
Duration                                 : 1 h 26 min
Bit rate                                 : 12.9 Mb/s
Width                                    : 1 920 pixels
Height                                   : 1 040 pixels
Display aspect ratio                     : 1.85:1
Frame rate mode                          : Constant
Frame rate                               : 23.976 (24000/1001) FPS
Color space                              : YUV
Chroma subsampling                       : 4:2:0
Bit depth                                : 8 bits
Scan type                                : Progressive
Bits/(Pixel*Frame)                       : 0.269
Stream size                              : 7.65 GiB (88%)
Writing library                          : x264 core 155 r2901 7d0ff22
Encoding settings                        : cabac=1 / ref=4 / deblock=1:-3:-3 / analyse=0x3:0x113 / me=umh / subme=8 / psy=1 / psy_rd=1.10:0.00 / mixed_ref=1 / me_range=32 / chroma_me=1 / trellis=2 / 8x8dct=1 / cqm=0 / deadzone=21,11 / fast_pskip=1 / chroma_qp_offset=-2 / threads=24 / lookahead_threads=4 / sliced_threads=0 / nr=0 / decimate=1 / interlaced=0 / bluray_compat=0 / constrained_intra=0 / bframes=3 / b_pyramid=2 / b_adapt=2 / b_bias=0 / direct=3 / weightb=1 / open_gop=0 / weightp=2 / keyint=240 / keyint_min=24 / scenecut=40 / intra_refresh=0 / rc_lookahead=50 / rc=2pass / mbtree=1 / bitrate=12895 / ratetol=1.0 / qcomp=0.60 / qpmin=0 / qpmax=69 / qpstep=4 / cplxblur=20.0 / qblur=0.5 / ip_ratio=1.40 / aq=3:0.75
Default                                  : Yes
Forced                                   : No
Statistics Tags Issue                    : no_variable_data 1970-01-01 00:00:00 / no_variable_data 2010-02-22 21:41:29
FromStats_BitRate                        : 12892422
FromStats_Duration                       : 01:26:53.167000000
FromStats_FrameCount                     : 124991
FromStats_StreamSize                     : 8401294117

Audio
ID                                       : 2
Format                                   : DTS
Format/Info                              : Digital Theater Systems
Mode                                     : 16
Format settings, Endianness              : Big
Codec ID                                 : A_DTS
Duration                                 : 1 h 26 min
Bit rate mode                            : Constant
Bit rate                                 : 1 509 kb/s
Channel(s)                               : 2 channels
Channel positions                        : Front: L R
Sampling rate                            : 48.0 kHz
Frame rate                               : 93.750 FPS (512 SPF)
Bit depth                                : 24 bits
Compression mode                         : Lossy
Stream size                              : 938 MiB (10%)
Language                                 : English
Default                                  : Yes
Forced                                   : No
Statistics Tags Issue                    : no_variable_data 1970-01-01 00:00:00 / no_variable_data 2010-02-22 21:41:29
FromStats_BitRate                        : 1508999
FromStats_Duration                       : 01:26:53.174000000
FromStats_FrameCount                     : 488735
FromStats_StreamSize                     : 983334820

Text #1
ID                                       : 3
Format                                   : UTF-8
Codec ID                                 : S_TEXT/UTF8
Codec ID/Info                            : UTF-8 Plain Text
Language                                 : English
Default                                  : No
Forced                                   : No
Statistics Tags Issue                    : no_variable_data 1970-01-01 00:00:00 / no_variable_data 2010-02-22 21:41:29
FromStats_BitRate                        : 43
FromStats_Duration                       : 01:22:08.631000000
FromStats_FrameCount                     : 841
FromStats_StreamSize                     : 26765

Text #2
ID                                       : 4
Format                                   : UTF-8
Codec ID                                 : S_TEXT/UTF8
Codec ID/Info                            : UTF-8 Plain Text
Title                                    : SDH
Language                                 : English
Default                                  : No
Forced                                   : No
Statistics Tags Issue                    : no_variable_data 1970-01-01 00:00:00 / no_variable_data 2010-02-22 21:41:29
FromStats_BitRate                        : 48
FromStats_Duration                       : 01:24:46.331000000
FromStats_FrameCount                     : 1020
FromStats_StreamSize                     : 31027

Menu
00:00:00.000                             : en:00:00:00.000
00:08:50.321                             : en:00:08:50.321
00:17:28.506                             : en:00:17:28.506
00:23:25.154                             : en:00:23:25.154
00:31:41.399                             : en:00:31:41.399
00:38:11.247                             : en:00:38:11.247
00:47:14.081                             : en:00:47:14.081
00:55:28.367                             : en:00:55:28.367
01:03:30.849                             : en:01:03:30.849
01:09:15.777                             : en:01:09:15.777
01:14:33.594                             : en:01:14:33.594
01:24:26.061                             : en:01:24:26.061



                                                                                                                                                                                                        
                                                                                                                                                                                                                                                                                                                                                                                                                                                                                                                                                                                                                                                                                                                                                                                                                                                        
e4c584f8b88a11561e2943c0b23d1ae9.torrent (88.31 KB, 下载次数: 0)

回复

使用道具 举报

您需要登录后才可以回帖 登录 | 立即注册

本版积分规则

5n电影网  

本网站所有资源来自网络,如无意中侵犯了您的权益,请发邮件至 [email protected],立即清除相关链接

GMT+8, 2019-11-22 19:45 , Processed in 0.085115 second(s), 30 queries .

Powered by Discuz! X3.2

© 2001-2013 Comsenz Inc.

快速回复 返回顶部 返回列表