请选择 进入手机版 | 继续访问电脑版

5n电影网

 找回密码
 立即注册

恋马狂/伊库斯 Equus.1977.1080p.BluRay.x264-PSYCHD 10.93GB

[复制链接]
bt电影 发表于 2019-7-20 15:37:33 | 显示全部楼层 |阅读模式


帖子完整标题:恋马狂/伊库斯 Equus.1977.1080p.BluRay.x264-PSYCHD 10.93GB




◎译  名 恋马狂 / 伊库斯
◎片  名 Equus
◎年  代 1977
◎产  地 美国 / 英国
◎类  别 剧情 / 悬疑 / 恐怖
◎语  言 英语
◎上映日期 1977-10-16
◎IMDb评分  7.2/10 from 6929 users
◎磁力链接  www.yunpanb.com
◎片  长 137 分钟
◎导  演 Sidney Lumet
◎编  剧 Peter Shaffer
◎主  演 Richard Burton
      Peter Firth
      Colin Blakely
      Joan Plowright
      Jenny Agutter


◎标  签 英国 | 美国 | 变态心理学 | SidneyLumet | 1977 | 英国电影 | 电影 | 心理

◎简  介  

  一名马童令人费解地戳瞎了6匹马的眼睛。“恋马”的情节围绕性唤醒、希腊神话和宗教展开。虽然精神病医师试图解释艾伦的残忍行为,但在此过程中,他必须面对自己的心魔。

◎获奖情况  

  第50届奥斯卡金像奖(1978)
  最佳男主角(提名) 理查德·伯顿
  最佳男配角(提名) 彼得·弗斯
  最佳改编剧本(提名) 彼得·谢弗


Video
ID                                       : 1
Format                                   : AVC
Format/Info                              : Advanced Video Codec

Format settings, CABAC                   : Yes
Format settings, ReFrames                : 4 frames
Codec ID                                 : V_MPEG4/ISO/AVC
Duration                                 : 2 h 17 min
Bit rate                                 : 10.6 Mb/s
Width                                    : 1 920 pixels
Height                                   : 1 040 pixels
Display aspect ratio                     : 1.85:1
Frame rate mode                          : Constant
Frame rate                               : 23.976 (24000/1001) FPS
Color space                              : YUV
Chroma subsampling                       : 4:2:0
Bit depth                                : 8 bits
Scan type                                : Progressive
Bits/(Pixel*Frame)                       : 0.221
Stream size                              : 9.98 GiB (91%)
Writing library                          : x264 core 142 r2389 956c8d8
Encoding settings                        : cabac=1 / ref=4 / deblock=1:-3:-3 / analyse=0x3:0x113 / me=umh / subme=8 / psy=1 / psy_rd=1.00:0.00 / mixed_ref=1 / me_range=16 / chroma_me=1 / trellis=1 / 8x8dct=1 / cqm=0 / deadzone=21,11 / fast_pskip=1 / chroma_qp_offset=-2 / threads=12 / lookahead_threads=2 / sliced_threads=0 / nr=0 / decimate=1 / interlaced=0 / bluray_compat=0 / constrained_intra=0 / bframes=3 / b_pyramid=2 / b_adapt=2 / b_bias=0 / direct=3 / weightb=1 / open_gop=0 / weightp=2 / keyint=240 / keyint_min=24 / scenecut=40 / intra_refresh=0 / rc_lookahead=50 / rc=2pass / mbtree=1 / bitrate=10580 / ratetol=1.0 / qcomp=0.60 / qpmin=0 / qpmax=69 / qpstep=4 / cplxblur=20.0 / qblur=0.5 / ip_ratio=1.40 / aq=1:1.00
Language                                 : English
Default                                  : Yes
Forced                                   : No

Audio
ID                                       : 2
Format                                   : DTS
Format/Info                              : Digital Theater Systems
Mode                                     : 16
Format settings, Endianness              : Big
Codec ID                                 : A_DTS
Duration                                 : 2 h 17 min
Bit rate mode                            : Constant
Bit rate                                 : 768 kb/s
Channel(s)                               : 1 channel
Channel positions                        : Front: C
Sampling rate                            : 48.0 kHz
Frame rate                               : 93.750 FPS (512 spf)
Bit depth                                : 24 bits
Compression mode                         : Lossy
Stream size                              : 758 MiB (7%)
Language                                 : English
Default                                  : Yes
Forced                                   : No

Text #1
ID                                       : 3
Format                                   : UTF-8
Codec ID                                 : S_TEXT/UTF8
Codec ID/Info                            : UTF-8 Plain Text
Title                                    : SDH
Language                                 : English
Default                                  : No
Forced                                   : No

Text #2
ID                                       : 4
Format                                   : UTF-8
Codec ID                                 : S_TEXT/UTF8
Codec ID/Info                            : UTF-8 Plain Text
Language                                 : English
Default                                  : No
Forced                                   : No

Menu
00:00:00.000                             : en:00:00:00.000
00:14:07.972                             : en:00:14:07.972
00:25:15.848                             : en:00:25:15.848
00:38:40.193                             : en:00:38:40.193
00:55:32.329                             : en:00:55:32.329
01:08:59.260                             : en:01:08:59.260
01:16:53.275                             : en:01:16:53.275
01:34:21.281                             : en:01:34:21.281
01:42:52.249                             : en:01:42:52.249
01:53:28.010                             : en:01:53:28.010
02:09:06.405                             : en:02:09:06.405
02:16:09.745                             : en:02:16:09.745



                                                                                                                                                                                                        
                                                                                                                                                                                                                                                                                                                                                                                                                                                                                                                                                                                                                                                                                                                                                                                                                                                        
e19d5d6723e8abfd8e907c326281c09b.torrent (55.16 KB, 下载次数: 0)

回复

使用道具 举报

您需要登录后才可以回帖 登录 | 立即注册

本版积分规则

5n电影网  

本网站所有资源来自网络,如无意中侵犯了您的权益,请发邮件至 [email protected],立即清除相关链接

GMT+8, 2019-11-22 20:29 , Processed in 0.075934 second(s), 30 queries .

Powered by Discuz! X3.2

© 2001-2013 Comsenz Inc.

快速回复 返回顶部 返回列表