请选择 进入手机版 | 继续访问电脑版

5n电影网

 找回密码
 立即注册

柜中野兽/柜中怪兽 Closet.Monster.2015.LIMITED.1080p.BluRay.x264-DRONE...

[复制链接]
bt下载 发表于 2019-7-20 15:37:33 | 显示全部楼层 |阅读模式


帖子完整标题:柜中野兽/柜中怪兽 Closet.Monster.2015.LIMITED.1080p.BluRay.x264-DRONES 6.57GB




◎译  名 柜中野兽 / 柜中怪兽 / 爱人怪物(台)
◎片  名 Closet Monster
◎年  代 2015
◎产  地 加拿大
◎类  别 剧情 / 同性
◎语  言 英语
◎上映日期 2015-09-14(多伦多电影节)
◎IMDb评分  7.0/10 from 6627 users
◎磁力链接  www.yunpanb.com
◎片  长 90分钟
◎导  演 斯蒂芬·邓恩 Stephen Dunn
◎编  剧 斯蒂芬·邓恩 Stephen Dunn
◎主  演 康纳·杰斯普 Connor Jessup
      阿隆·艾布拉姆斯 Aaron Abrams
      伊莎贝拉·罗西里尼 Isabella Rossellini
      乔安妮·凯莉 Joanne Kelly
      阿廖沙·施耐德 Aliocha Schneider
      杰克·富尔顿 Jack Fulton
      索菲亚·班茨哈夫 Sofia Banzhaf
      玛丽·沃尔什 Mary Walsh
      乔纳森·沃顿 Jonathan Watton


◎标  签 同性 | 加拿大 | LGBT | 青春 | 成长 | 2015 | 剧情 | 文艺

◎简  介  

  Oscar Madly是东海岸的青少年特效化妆师,面对强有力的父亲,面对困住他创造性的小镇,面对他受限制的家庭生活, 他想要离开。他从最好的朋友Gemma和自己的宠物仓鼠Buffy处得到了很大的支持。当他遇到帅气的Wilder时,Oscar决定挣脱束缚自己的铁链,开始他真正想要的新生活。

◎获奖情况  

  第40届多伦多国际电影节(2015)
  最佳加拿大电影 斯蒂芬·邓恩

  第20届釜山国际电影节(2015)
  未来景象奖(提名)


Video
ID                                       : 1
Format                                   : AVC
Format/Info                              : Advanced Video Codec
  
Format settings, CABAC                   : Yes
Format settings, ReFrames                : 4 frames
Codec ID                                 : V_MPEG4/ISO/AVC
Duration                                 : 1h 29mn
Bit rate                                 : 8 925 Kbps
Width                                    : 1 920 pixels
Height                                   : 1 040 pixels
Display aspect ratio                     : 1.85:1
Frame rate mode                          : Constant
Frame rate                               : 23.976 fps
Color space                              : YUV
Chroma subsampling                       : 4:2:0
Bit depth                                : 8 bits
Scan type                                : Progressive
Bits/(Pixel*Frame)                       : 0.186
Stream size                              : 5.61 GiB (86%)
Writing library                          : x264 core 148 r2705 3f5ed56
Encoding settings                        : cabac=1 / ref=4 / deblock=1:0:0 / analyse=0x3:0x133 / me=umh / subme=7 / psy=1 / psy_rd=1.00:0.00 / mixed_ref=1 / me_range=16 / chroma_me=1 / trellis=1 / 8x8dct=1 / cqm=0 / deadzone=21,11 / fast_pskip=0 / chroma_qp_offset=-2 / threads=32 / lookahead_threads=5 / sliced_threads=0 / nr=0 / decimate=1 / interlaced=0 / bluray_compat=0 / constrained_intra=0 / bframes=3 / b_pyramid=2 / b_adapt=1 / b_bias=0 / direct=1 / weightb=1 / open_gop=0 / weightp=2 / keyint=250 / keyint_min=23 / scenecut=40 / intra_refresh=0 / rc_lookahead=40 / rc=2pass / mbtree=1 / bitrate=8925 / ratetol=1.0 / qcomp=0.60 / qpmin=0 / qpmax=69 / qpstep=4 / cplxblur=20.0 / qblur=0.5 / ip_ratio=1.40 / aq=1:1.00
Language                                 : English
Default                                  : Yes
Forced                                   : No

Audio
ID                                       : 2
Format                                   : DTS
Format/Info                              : Digital Theater Systems
Mode                                     : 16
Format settings, Endianness              : Big
Codec ID                                 : A_DTS
Duration                                 : 1h 29mn
Bit rate mode                            : Constant
Bit rate                                 : 1 509 Kbps
Channel(s)                               : 6 channels
Channel positions                        : Front: L C R, Side: L R, LFE
Sampling rate                            : 48.0 KHz
Frame rate                               : 93.750 fps (512 spf)
Bit depth                                : 24 bits
Compression mode                         : Lossy
Stream size                              : 971 MiB (14%)
Language                                 : English
Default                                  : Yes
Forced                                   : No

Menu
00:00:00.000                             : en:00:00:00.000
00:11:10.670                             : en:00:11:10.670
00:22:10.371                             : en:00:22:10.371
00:34:14.427                             : en:00:34:14.427
00:45:36.567                             : en:00:45:36.567
00:56:44.401                             : en:00:56:44.401
01:08:05.081                             : en:01:08:05.081
01:19:13.249                             : en:01:19:13.249



                                                                                                                                                                                                        
                                                                                                                                                                                                                                                                                                                                                                                                                                                                                                                                                                                                                                                                                                                                                                                                                                                        
47b56377c35ab1b9e3cfb30c7f9b13b4.torrent (132.19 KB)

回复

使用道具 举报

您需要登录后才可以回帖 登录 | 立即注册

本版积分规则

5n电影网  |网站地图

本网站所有资源来自网络,如无意中侵犯了您的权益,请发邮件至 [email protected],立即清除相关链接

GMT+8, 2019-9-18 05:17 , Processed in 0.098372 second(s), 31 queries .

Powered by Discuz! X3.2

© 2001-2013 Comsenz Inc.

快速回复 返回顶部 返回列表