请选择 进入手机版 | 继续访问电脑版

5n电影网

 找回密码
 立即注册

疯狂的米罗 Bad.Milo.2013.LiMiTED.1080p.BluRay.x264-GECKOS 6.55GB

[复制链接]
电影下载 发表于 2019-7-20 15:37:33 | 显示全部楼层 |阅读模式


帖子完整标题:疯狂的米罗 Bad.Milo.2013.LiMiTED.1080p.BluRay.x264-GECKOS 6.55GB




◎译  名 疯狂的米罗 / Milo / 菊花怪物
◎片  名 Bad Milo!
◎年  代 2013
◎产  地 美国
◎类  别 喜剧 / 恐怖
◎语  言 英语
◎上映日期 2013
◎IMDb评分  5.7/10 from 6443 users
◎磁力链接  www.yunpanb.com
◎片  长 84分钟
◎导  演 Jacob Vaughan
◎编  剧 Benjamin Hayes / Jacob Vaughan
◎主  演 帕特里克·沃伯顿 Patrick Warburton
      Nick Jaine
      彼得·斯特曼 Peter Stormare
      吉莉安·雅各布斯 Gillian Jacobs
      肯·马里诺 Ken Marino
      斯蒂芬·鲁特 Stephen Root
      乔纳森·丹尼尔·布朗 Jonathan Daniel Brown
      托比·胡斯 Toby Huss


◎标  签 喜剧 | 美国 | 恐怖 | 惊悚 | cult | 美国电影 | Cult | 2013

◎简  介  

  一个经常胃痛的男人发现自己的肠道内寄生着一位恶魔...
Video
ID                                       : 1
Format                                   : AVC
Format/Info                              : Advanced Video Code
tings, CABAC                   : Yes
Format settings, ReFrames                : 4 frames
Codec ID                                 : V_MPEG4/ISO/AVC
Duration                                 : 1 h 24 min
Bit rate                                 : 9 648 kb/s
Width                                    : 1 920 pixels
Height                                   : 1 040 pixels
Display aspect ratio                     : 1.85:1
Frame rate mode                          : Constant
Frame rate                               : 23.976 (24000/1001) FPS
Color space                              : YUV
Chroma subsampling                       : 4:2:0
Bit depth                                : 8 bits
Scan type                                : Progressive
Bits/(Pixel*Frame)                       : 0.202
Stream size                              : 5.54 GiB (84%)
Writing library                          : x264 core 140 r2377 1ca7bb9
Encoding settings                        : cabac=1 / ref=4 / deblock=1:0:0 / analyse=0x3:0x133 / me=umh / subme=8 / psy=1 / psy_rd=1.00:0.00 / mixed_ref=1 / me_range=16 / chroma_me=1 / trellis=1 / 8x8dct=1 / cqm=0 / deadzone=21,11 / fast_pskip=0 / chroma_qp_offset=-2 / threads=18 / lookahead_threads=3 / sliced_threads=0 / nr=0 / decimate=1 / interlaced=0 / bluray_compat=0 / constrained_intra=0 / bframes=3 / b_pyramid=2 / b_adapt=2 / b_bias=0 / direct=3 / weightb=1 / open_gop=0 / weightp=2 / keyint=250 / keyint_min=23 / scenecut=40 / intra_refresh=0 / rc_lookahead=50 / rc=2pass / mbtree=1 / bitrate=9648 / ratetol=1.0 / qcomp=0.60 / qpmin=0 / qpmax=69 / qpstep=4 / cplxblur=20.0 / qblur=0.5 / ip_ratio=1.40 / aq=1:1.00
Language                                 : English
Default                                  : Yes
Forced                                   : No

Audio
ID                                       : 2
Format                                   : DTS
Format/Info                              : Digital Theater Systems
Mode                                     : 16
Format settings, Endianness              : Big
Codec ID                                 : A_DTS
Duration                                 : 1 h 24 min
Bit rate mode                            : Constant
Bit rate                                 : 1 509 kb/s
Channel(s)                               : 6 channels
Channel positions                        : Front: L C R, Side: L R, LFE
Sampling rate                            : 48.0 kHz
Frame rate                               : 93.750 FPS (512 spf)
Bit depth                                : 24 bits
Compression mode                         : Lossy
Stream size                              : 908 MiB (14%)
Language                                 : English
Default                                  : Yes
Forced                                   : No

Menu
00:00:00.000                             : en:00:00:00.000
00:05:34.084                             : en:00:05:34.084
00:08:16.663                             : en:00:08:16.663
00:14:41.255                             : en:00:14:41.255
00:24:49.571                             : en:00:24:49.571
00:40:27.592                             : en:00:40:27.592
00:45:18.090                             : en:00:45:18.090
00:51:02.768                             : en:00:51:02.768
01:01:17.215                             : en:01:01:17.215
01:07:32.799                             : en:01:07:32.799
01:13:10.386                             : en:01:13:10.386
01:20:07.344                             : en:01:20:07.344



                                                                                                                                                                                                        
                                                                                                                                                                                                                                                                                                                                                                                                                                                                                                                                                                                                                                                                                                                                                                                                                                                        
8827a33eca8e63ec9d53afc9bccf1a05.torrent (66.06 KB)

回复

使用道具 举报

您需要登录后才可以回帖 登录 | 立即注册

本版积分规则

5n电影网  |网站地图

本网站所有资源来自网络,如无意中侵犯了您的权益,请发邮件至 [email protected],立即清除相关链接

GMT+8, 2019-9-18 06:01 , Processed in 0.085334 second(s), 31 queries .

Powered by Discuz! X3.2

© 2001-2013 Comsenz Inc.

快速回复 返回顶部 返回列表