请选择 进入手机版 | 继续访问电脑版

5n电影网

 找回密码
 立即注册

纽约之王/一个国王在纽约 A.King.in.New.York.1957.1080p.BluRay.x264-...

[复制链接]
电影首发 发表于 2019-7-20 15:37:33 | 显示全部楼层 |阅读模式


帖子完整标题:纽约之王/一个国王在纽约 A.King.in.New.York.1957.1080p.BluRay.x264-SAiMORNY 7.65GB




◎译  名 纽约之王 / 一个国王在纽约 / 流亡皇帝 / 王在纽约 / 纽约王
◎片  名 A King in New York
◎年  代 1957
◎产  地 英国
◎类  别 剧情 / 喜剧
◎语  言 英语
◎上映日期 1957-09-12
◎IMDb评分  7.2/10 from 6555 users
◎磁力链接  www.yunpanb.com
◎片  长 110分钟
◎导  演 Charles Chaplin
◎编  剧 Charles Chaplin
◎主  演 Charles Chaplin
      Maxine Audley
      Jerry Desmonde


◎标  签 卓别林 | 美国 | 喜剧 | CharlesChaplin | 1957 | 英国 | 美国电影 | 1950s

◎简  介  

  夏洛克国王因为国家发生了革命而被迫跑到美国纽约寻求庇护。刚到美国第二天,他的属下就把他带来的所有财产全部掠走,国王转眼间一无所有了,正在国王失意的时候,他结识了一位美丽的姑娘,并很快答应陪她出席一个晚宴,可国王没有想到,眼前的姑娘其实是一个著名的电视主持人,而他,马上成为了一个“广告明星”……
Video
ID                                       : 1
Format                                   : AVC
Format/Info                              : Advanced Video Codec

Format settings                          : CABAC / 4 Ref Frames
Format settings, CABAC                   : Yes
Format settings, ReFrames                : 4 frames
Codec ID                                 : V_MPEG4/ISO/AVC
Duration                                 : 1 h 44 min
Bit rate                                 : 8 970 kb/s
Width                                    : 1 440 pixels
Height                                   : 1 080 pixels
Display aspect ratio                     : 4:3
Frame rate mode                          : Constant
Frame rate                               : 23.976 (24000/1001) FPS
Color space                              : YUV
Chroma subsampling                       : 4:2:0
Bit depth                                : 8 bits
Scan type                                : Progressive
Bits/(Pixel*Frame)                       : 0.241
Stream size                              : 6.40 GiB (84%)
Writing library                          : x264 core 119 r2106 07efeb4
Encoding settings                        : cabac=1 / ref=4 / deblock=1:0:0 / analyse=0x3:0x133 / me=umh / subme=7 / psy=1 / psy_rd=1.00:0.00 / mixed_ref=1 / me_range=16 / chroma_me=1 / trellis=1 / 8x8dct=1 / cqm=0 / deadzone=21,11 / fast_pskip=0 / chroma_qp_offset=-2 / threads=6 / sliced_threads=0 / nr=0 / decimate=1 / interlaced=0 / bluray_compat=0 / constrained_intra=0 / bframes=3 / b_pyramid=2 / b_adapt=2 / b_bias=0 / direct=3 / weightb=1 / open_gop=0 / weightp=2 / keyint=250 / keyint_min=23 / scenecut=40 / intra_refresh=0 / rc_lookahead=50 / rc=2pass / mbtree=1 / bitrate=8970 / ratetol=1.0 / qcomp=0.60 / qpmin=0 / qpmax=69 / qpstep=4 / cplxblur=20.0 / qblur=0.5 / ip_ratio=1.40 / aq=1:1.00
Language                                 : English
Default                                  : No
Forced                                   : No

Audio
ID                                       : 2
Format                                   : DTS
Format/Info                              : Digital Theater Systems
Muxing mode                              : Header stripping
Codec ID                                 : A_DTS
Duration                                 : 1 h 44 min
Bit rate mode                            : Constant
Bit rate                                 : 1 509 kb/s
Channel(s)                               : 2 channels
Channel layout                           : L R
Sampling rate                            : 48.0 kHz
Frame rate                               : 93.750 FPS (512 SPF)
Bit depth                                : 24 bits
Compression mode                         : Lossy
Stream size                              : 1.10 GiB (14%)
Language                                 : English
Default                                  : Yes
Forced                                   : No



                                                                                                                                                                                                        
                                                                                                                                                                                                                                                                                                                                                                                                                                                                                                                                                                                                                                                                                                                                                                                                                                                        
cbedb5436278a05bc4137729605d3d88.torrent (77.07 KB)

回复

使用道具 举报

您需要登录后才可以回帖 登录 | 立即注册

本版积分规则

5n电影网  |网站地图

本网站所有资源来自网络,如无意中侵犯了您的权益,请发邮件至 [email protected],立即清除相关链接

GMT+8, 2019-9-18 05:23 , Processed in 0.077281 second(s), 31 queries .

Powered by Discuz! X3.2

© 2001-2013 Comsenz Inc.

快速回复 返回顶部 返回列表