请选择 进入手机版 | 继续访问电脑版

5n电影网

 找回密码
 立即注册

[BT下载]杀死冈瑟 Killing.Gunther.2017.1080p.BluRay.x264.DTS-CHD 8.86GB

[复制链接]
电影首发 发表于 2017-12-20 12:40:47 | 显示全部楼层 |阅读模式

译  名 杀死冈瑟/我们为什么杀冈瑟
片  名 Killing Gunther
年  代 2017
产  地 美国
类  别 喜剧/动作
语  言 英语
上映日期 2017-09-22(美国)
片  长 93分钟
导  演 塔兰·基拉姆 Taran Killam
主  演 阿诺·施瓦辛格 Arnold Schwarzenegger
      寇碧·史莫德斯 Cobie Smulders
      汉娜·西蒙尼 Hannah Simone
      塔兰·基拉姆 Taran Killam
      艾莉森·托尔曼 Allison Tolman
      鲍比·莫尼汉 Bobby Moynihan
      艾伦·余 Aaron Yoo
      斯蒂夫·巴西奇 Steve Bacic
      亚历克斯·丹肯 Alex Duncan
      史葛·麦克尼尔 Scott McNeil
      彼特·科拉米斯 Peter Kelamis
      瑞安·高卢 Ryan Gaul
      丽贝卡·奥尔森 Rebecca Olson
      阿米尔·塔莱 Amir Talai
      陶妮·韦斯特 Tawny West
      乔尔·拉贝尔 Joel Labelle
      保罗·布里顿 Paul Brittain


简  介


  阿诺·施瓦辛格将出演喜剧片《我们为什么杀冈瑟》(Why We're Killing Gunther,暂译)。塔兰·基拉姆(《周六夜现场》)自编自导自演。施瓦辛格饰演“全球头号杀手”冈瑟,而来自世界各地的杀手精英则打算炮制完美计划将其干掉。影片将于6月开机,同时本片也将在即将开幕的戛纳电影节上进行推介。


Video
ID                                       : 1
Format                                   : AVC
Format/Info                              : Advanced Video Codec
Format profile                           : High L4.1
Format settings                          : CABAC / 4 Ref Frames
Format settings, CABAC                   : Yes
Format settings, ReFrames                : 4 frames
Codec ID                                 : V_MPEG4/ISO/AVC
Duration                                 : 1 h 33 min
Bit rate                                 : 12.1 Mb/s
Width                                    : 1 920 pixels
Height                                   : 1 036 pixels
Display aspect ratio                     : 1.85:1
Frame rate mode                          : Constant
Frame rate                               : 23.976 (24000/1001) FPS
Color space                              : YUV
Chroma subsampling                       : 4:2:0
Bit depth                                : 8 bits
Scan type                                : Progressive
Bits/(Pixel*Frame)                       : 0.253
Stream size                              : 7.88 GiB (89%)
Writing library                          : x264 core 149 r2771+45 509cceb 7mod [[email protected] X86_64]
Encoding settings                        : cabac=1 / ref=4 / deblock=1:-3:-3 / analyse=0x3:0x113 / me=umh / subme=10 / psy=1 / fade_compensate=0.00 / psy_rd=0.90:0.10 / mixed_ref=1 / me_range=48 / chroma_me=1 / trellis=2 / 8x8dct=1 / cqm=0 / deadzone=21,11 / fast_pskip=0 / chroma_qp_offset=-2 / threads=12 / lookahead_threads=2 / sliced_threads=0 / nr=0 / decimate=1 / interlaced=0 / bluray_compat=0 / constrained_intra=0 / fgo=0 / bframes=8 / b_pyramid=2 / b_adapt=2 / b_bias=0 / direct=3 / weightb=1 / open_gop=0 / weightp=2 / keyint=250 / keyint_min=23 / scenecut=40 / intra_refresh=0 / rc_lookahead=40 / rc=crf / mbtree=0 / crf=21.0000 / qcomp=0.70 / qpmin=0:0:0 / qpmax=69:69:69 / qpstep=4 / vbv_maxrate=35000 / vbv_bufsize=35000 / crf_max=0.0 / nal_hrd=none / filler=0 / ip_ratio=1.40 / pb_ratio=1.30 / aq=3:1.00 / aq-sensitivity=10.00 / aq-factor=1.00:1.00:1.00 / aq2=0 / aq3=2:[0.50:0.50]:[0.50:0.50]:[0.50:0.50]:[0.50:0.50] / aq3-sensitivity=10.00 / aq3-factor=[1.00:1.00]:[1.00:1.00]:[1.00:1.00] / aq3-boundary=192:64:24
Language                                 : English
Default                                  : Yes
Forced                                   : No
Color range                              : Limited
Matrix coefficients                      : BT.709

Audio
ID                                       : 2
Format                                   : DTS
Format/Info                              : Digital Theater Systems
Codec ID                                 : A_DTS
Duration                                 : 1 h 33 min
Bit rate mode                            : Constant
Bit rate                                 : 1 509 kb/s
Channel(s)                               : 6 channels
Channel positions                        : Front: L C R, Side: L R, LFE
Sampling rate                            : 48.0 kHz
Frame rate                               : 93.750 FPS (512 SPF)
Bit depth                                : 24 bits
Compression mode                         : Lossy
Stream size                              : 1 009 MiB (11%)
Language                                 : English
Default                                  : Yes
Forced                                   : No

Killing.Gunther.2017.1080p.BluRay.x264.DTS-CHD[bt天堂 www.btbt4.com].torrent (89.15 KB, 下载次数: 0)

回复

使用道具 举报

您需要登录后才可以回帖 登录 | 立即注册

本版积分规则

5n电影网  

本网站所有资源来自网络,如无意中侵犯了您的权益,请发邮件至 [email protected],立即清除相关链接

GMT+8, 2020-7-3 00:48 , Processed in 0.071569 second(s), 30 queries .

Powered by Discuz! X3.2

© 2001-2013 Comsenz Inc.

快速回复 返回顶部 返回列表